<?xml version="1.0" standalone="no"?>
<!DOCTYPE svg PUBLIC "-//W3C//DTD SVG 1.1//EN" "http://www.w3.org/Graphics/SVG/1.1/DTD/svg11.dtd" >
<svg xmlns="http://www.w3.org/2000/svg">
<metadata>
Copyright   : Copyright 2014 Luc(as) de Groot. All rights reserved. Published by LucasFonts.com
Designer    : Luc(as) de Groot
Foundry     : LucasFonts
Foundry URL : http://lucasfonts.com
</metadata>
<defs>
<font id="TheSans_LP_700_Bold" horiz-adv-x="1126" >
<font-face units-per-em="2048" ascent="1516" descent="-532" />
<missing-glyph horiz-adv-x="446" />
<glyph unicode=" "  horiz-adv-x="446" />
<glyph unicode="&#x09;" horiz-adv-x="446" />
<glyph unicode="&#xa0;" horiz-adv-x="446" />
<glyph unicode="!" horiz-adv-x="657" d="M506 133q0 -66 -46 -111t-116 -45q-68 0 -114 45.5t-46 110.5q0 66 46 111t114 45q70 0 116 -45t46 -111zM461 385h-225l-43 1065h307z" />
<glyph unicode="&#x22;" horiz-adv-x="829" d="M319 918h-196l-33 520h262zM705 918h-195l-33 520h262z" />
<glyph unicode="#" horiz-adv-x="1193" d="M956 842l-30 -293h164v-184h-185l-37 -365h-209l39 365h-270l-39 -365h-209l39 365h-162v184h181l32 293h-164v182h183l37 358h209l-39 -358h270l39 358h209l-39 -358h162v-182h-181zM479 842l-33 -293h271l31 293h-269z" />
<glyph unicode="$" horiz-adv-x="1011" d="M918 440q0 -70 -23 -132t-67 -113.5t-107.5 -87t-140.5 -54.5v-250h-189v236q-66 2 -124 8t-124 19l19 237q29 -10 62.5 -18.5t67.5 -13.5t66.5 -8t63.5 -3q49 0 89 9.5t69.5 27.5t45 48t15.5 69q0 53 -36 87t-105.5 62.5t-141 58t-130 69.5t-96.5 107.5t-38 168.5 q0 68 22.5 128t65.5 108t103.5 80t132.5 46v207h186v-193q53 -2 106.5 -8t102.5 -16l-16 -223q-61 16 -120 25t-108 9q-53 0 -93 -10t-64.5 -29.5t-35.5 -44t-11 -53.5q0 -49 36.5 -81.5t104 -61.5t142.5 -60.5t134.5 -73.5t97.5 -110t38 -166z" />
<glyph unicode="%" horiz-adv-x="1556" d="M506 1079q0 88 -27.5 126t-87.5 38q-49 0 -80.5 -43t-31.5 -117q0 -88 28.5 -126.5t85.5 -38.5q49 0 81 42.5t32 118.5zM1280 303q0 86 -27.5 124t-85.5 38q-51 0 -82.5 -42t-31.5 -116q0 -88 28.5 -127t87.5 -39q47 0 79 44t32 118zM702 1094q0 -74 -24.5 -137.5 t-67.5 -108.5t-102 -69.5t-127 -24.5q-147 0 -225 85t-78 234q0 72 24.5 134.5t67.5 106.5t102.5 68.5t126.5 24.5q143 0 223 -79.5t80 -233.5zM344 -45l-164 117l1026 1353l164 -118zM1479 315q0 -74 -24.5 -136t-69 -107t-102.5 -70t-126 -25q-147 0 -225 84t-78 236 q0 72 23.5 134.5t67.5 106.5t102.5 68.5t126.5 24.5q143 0 224 -80t81 -236z" />
<glyph unicode="&#x26;" horiz-adv-x="1632" d="M903 301q-53 41 -109.5 87t-108.5 92t-98 88t-83 79q-35 -31 -60.5 -60.5t-42 -58t-24.5 -57.5t-8 -59q0 -43 15 -82t46 -68t76 -45t102 -16q84 0 159 27.5t136 72.5zM696 1190q0 55 -31.5 90t-95.5 35q-57 0 -93 -36t-36 -93q0 -23 5.5 -47.5t18.5 -53t34.5 -61.5 t52.5 -68q35 29 61.5 57.5t45 56.5t28.5 58.5t10 61.5zM1378 -51q-35 27 -70.5 52.5t-70.5 52t-71 52t-70 52.5q-49 -39 -107.5 -72t-125 -57.5t-141.5 -38t-157 -13.5q-119 0 -208 31t-146 86.5t-86 129t-29 157.5q0 53 12.5 101t35 91t53 82t68.5 75t85 73 q-45 53 -75.5 101t-51 92t-31 88t-10.5 87q0 70 27 131.5t79 108.5t129 73.5t173 26.5q174 0 269 -81.5t95 -219.5q0 -37 -7 -71.5t-20.5 -67.5t-34 -65.5t-48 -64.5t-63.5 -64.5t-79 -67.5q70 -70 172.5 -155t210.5 -167q20 31 37 65t31 70.5t24.5 74.5t16.5 78t9 81t1 82 h260q2 -80 -9 -160t-34.5 -155.5t-59.5 -146t-81 -132.5q51 -39 100.5 -73.5t159.5 -114.5z" />
<glyph unicode="'" horiz-adv-x="442" d="M319 918h-196l-33 520h262z" />
<glyph unicode="(" horiz-adv-x="626" d="M410 -440q-172 270 -238 524t-66 500q0 242 71 502t235 526l190 -88q-117 -207 -177 -442.5t-60 -487.5q0 -520 243 -942z" />
<glyph unicode=")" horiz-adv-x="626" d="M524 590q0 -248 -67.5 -506t-237.5 -524l-190 88q117 207 178 442.5t61 489.5q0 518 -241 942l198 90q168 -270 233.5 -523t65.5 -499z" />
<glyph unicode="*" horiz-adv-x="786" d="M625 928l-174 139l32 -221h-186l33 221l-176 -139l-91 159l207 82l-207 82l93 162l174 -139l-33 221h186l-32 -221l174 139l92 -160l-207 -82l207 -84z" />
<glyph unicode="+" d="M686 500v-381h-248v381h-358v219h358v379h248v-379h361v-219h-361z" />
<glyph unicode="," horiz-adv-x="528" d="M262 305q72 0 119 -56t47 -149q0 -92 -60.5 -210.5t-203.5 -243.5l-109 96q106 113 119.5 184.5t-35.5 128.5q-29 35 -33 78t12.5 82t53.5 64.5t90 25.5z" />
<glyph unicode="-" horiz-adv-x="684" d="M90 463v211h504v-211h-504z" />
<glyph unicode="&#xad;" horiz-adv-x="684" d="M90 463v211h504v-211h-504z" />
<glyph unicode="." horiz-adv-x="528" d="M430 145q0 -70 -48 -119t-118 -49t-119 49.5t-49 118.5q0 68 49.5 117t118.5 49q70 0 118 -49t48 -117z" />
<glyph unicode="/" horiz-adv-x="948" d="M236 -330h-259l717 1880h258z" />
<glyph unicode="0" horiz-adv-x="1239" d="M868 690q0 129 -15 222.5t-46 152.5t-77 88t-109 29q-57 0 -103.5 -27t-79 -85t-51 -152.5t-18.5 -225.5q0 -254 61.5 -371.5t187.5 -117.5q57 0 102.5 26.5t78 84t51 151.5t18.5 225zM1149 713q0 -170 -37 -306.5t-107.5 -231.5t-172 -145t-228.5 -50q-133 0 -229 43 t-159.5 130t-94.5 216t-31 301q0 170 37 306t107.5 231.5t172 145.5t226.5 50q264 0 390 -172t126 -518z" />
<glyph unicode="1" horiz-adv-x="751" d="M332 0v1112l-262 -94l-41 235l366 133h207v-1386h-270z" />
<glyph unicode="2" horiz-adv-x="1026" d="M98 0v231l209 236q88 96 146.5 172t93.5 135.5t49 108.5t14 94q0 84 -51 135t-147 51q-61 0 -130 -21.5t-124 -56.5l-39 238q76 37 166 58.5t194 21.5q102 0 182 -28.5t133.5 -81t80 -122t26.5 -151.5q0 -66 -19.5 -135.5t-60.5 -146t-104.5 -163t-153.5 -184.5 l-127 -145l2 -2q96 6 209 7t297 1v-252h-846z" />
<glyph unicode="3" horiz-adv-x="991" d="M909 428q0 -100 -40 -183t-115.5 -143.5t-178 -91t-225.5 -30.5q-70 0 -136.5 6t-123.5 16l31 234q111 -31 237 -31q129 0 198 55t69 148q0 47 -22.5 90t-77 70.5t-136.5 36.5t-215 -5v209q125 -2 201 13.5t120 43t64.5 67.5t20.5 83q0 78 -52.5 122t-150.5 44 q-57 0 -116.5 -13.5t-121.5 -40.5l-26 215q70 27 154.5 43.5t170.5 16.5q98 0 180 -24.5t134.5 -69.5t79 -105.5t26.5 -132.5q0 -113 -61.5 -194.5t-167.5 -120.5v-2q125 -27 202.5 -117t77.5 -209z" />
<glyph unicode="4" horiz-adv-x="1136" d="M637 1141h-2l-350 -602q41 0 107.5 1t127 1h117.5v600zM893 315v-315h-258v315h-578l-20 207l508 860h348v-837h209v-230h-209z" />
<glyph unicode="5" horiz-adv-x="960" d="M899 453q0 -104 -38 -191.5t-109.5 -151t-172 -97t-225.5 -33.5q-68 0 -135 7t-123 19l29 236q55 -18 116.5 -27.5t125.5 -9.5q119 0 185 56t66 159q0 106 -78.5 163.5t-244.5 57.5q-76 0 -154 -6v747h678v-249l-430 2v-281q250 2 380 -106.5t130 -294.5z" />
<glyph unicode="6" horiz-adv-x="1169" d="M817 430q0 106 -58.5 170t-158.5 64t-159.5 -62.5t-59.5 -165.5q0 -102 57.5 -168.5t161.5 -66.5q98 0 157.5 62.5t59.5 166.5zM1092 467q0 -111 -38 -203t-107.5 -156.5t-160 -97.5t-198.5 -33q-129 0 -227.5 46.5t-157 128t-85 197.5t-26.5 261q0 182 42 332t130 253 t220 155.5t304 52.5q45 0 93.5 -3t103.5 -9l-18 -234q-57 10 -102.5 14.5t-94.5 4.5q-172 0 -269.5 -83t-129.5 -264q-4 -31 -7.5 -48t-7.5 -29h2q49 59 130 94t178 35q98 0 178 -30t132 -82t84 -128t32 -174z" />
<glyph unicode="7" horiz-adv-x="952" d="M903 1157q-57 -127 -111.5 -273.5t-103.5 -299t-90 -301t-70 -283.5h-297q33 145 80 304t99.5 312.5t103.5 285.5t94 228q-27 -2 -71.5 -2t-102 -1t-121 -1h-123h-145.5v256h858v-225z" />
<glyph unicode="8" horiz-adv-x="1161" d="M795 356q0 39 -15.5 72t-44 60.5t-69.5 52t-99 53.5q-104 -59 -152 -113.5t-48 -126.5q0 -76 54 -120t161 -44q98 0 155.5 44t57.5 122zM774 1049q0 63 -48 106t-144 43q-90 0 -141.5 -40t-51.5 -105q0 -66 49 -115t158 -102q92 51 135 102.5t43 110.5zM1065 371 q0 -96 -37 -170t-105.5 -124t-160.5 -76t-203 -26q-225 0 -345 97.5t-120 263.5q0 59 17.5 110.5t50.5 94.5t79 80.5t107 76.5q-117 68 -173 148t-56 190q0 86 32.5 155t96 118t154 74.5t200.5 25.5q104 0 187 -24.5t138.5 -68.5t84 -106.5t28.5 -138.5q0 -57 -16 -105 t-46 -89t-71 -76t-96 -70q127 -72 190.5 -155.5t63.5 -204.5z" />
<glyph unicode="9" horiz-adv-x="1169" d="M788 946q0 96 -56 166t-167 70q-96 0 -154.5 -63.5t-58.5 -166.5q0 -104 57.5 -168.5t157.5 -64.5q55 0 98.5 18.5t73 55t39.5 75.5t10 78zM1077 772q0 -393 -171 -591.5t-496 -198.5q-104 0 -240 18l18 236q57 -12 119 -19.5t125 -7.5q158 0 247 81t114 242q4 20 9 53 t9 46h-2q-47 -59 -127 -94t-178 -35q-88 0 -164 24.5t-137.5 77.5t-94 134t-32.5 177q0 102 34.5 192.5t101.5 157t161 103.5t207 37q129 0 227 -47t156.5 -128t86 -192.5t27.5 -265.5z" />
<glyph unicode=":" horiz-adv-x="610" d="M496 145q0 -70 -48.5 -119t-117.5 -49q-70 0 -119 49.5t-49 118.5q0 68 49 117t119 49t118 -49t48 -117zM496 725q0 -70 -48.5 -119t-117.5 -49q-70 0 -119 49t-49 119q0 68 49 117t119 49t118 -49t48 -117z" />
<glyph unicode=";" horiz-adv-x="610" d="M328 305q74 0 121 -56t47 -149q0 -92 -60.5 -210.5t-204.5 -243.5l-108 96q104 113 117.5 184.5t-33.5 128.5q-29 35 -33 78t12.5 82t52.5 64.5t89 25.5zM496 725q0 -70 -48.5 -119t-117.5 -49q-70 0 -119 49t-49 119q0 68 49 117t119 49t118 -49t48 -117z" />
<glyph unicode="&#x3c;" d="M782 12l-653 604l651 603l172 -172l-485 -429l487 -428z" />
<glyph unicode="=" d="M109 307v211h909v-211h-909zM109 698v211h909v-211h-909z" />
<glyph unicode="&#x3e;" d="M346 12l-172 172l485 428l-487 428l172 179l653 -605z" />
<glyph unicode="?" horiz-adv-x="923" d="M555 133q0 -66 -46 -111t-114 -45t-113.5 45.5t-45.5 110.5q0 66 46 111t113 45q68 0 114 -45t46 -111zM827 1051q0 -86 -29.5 -146.5t-71.5 -106.5t-89 -86t-82 -86t-48 -102.5t11 -138.5h-254q-33 96 -24.5 167t39 124t74.5 95t86 80t72 79t30 92q0 92 -106.5 147.5 t-297.5 61.5l33 237q168 -4 292 -39.5t206 -93t120.5 -131t38.5 -153.5z" />
<glyph unicode="@" horiz-adv-x="2097" d="M1176 821q-41 12 -99 13q-57 0 -102 -33t-75 -87.5t-45 -118t-15 -124.5q0 -156 82 -156q70 0 134 103.5t101 302.5zM1950 745q0 -147 -38 -268t-108.5 -206t-167 -129t-211.5 -44q-123 0 -188.5 63.5t-62.5 160.5h-5q-23 -45 -54.5 -84t-71 -71t-89 -50.5t-104.5 -18.5 q-115 0 -185.5 87t-70.5 249q0 127 34 236.5t102.5 192.5t169.5 129t233 46q109 0 194.5 -17t122.5 -30l-82 -436q-23 -121 1 -182.5t93 -61.5q53 0 99.5 28t81 82t54 133t19.5 179q0 104 -32.5 198.5t-103.5 169.5t-182.5 119t-264.5 44q-156 0 -293.5 -57.5t-240.5 -164 t-161.5 -254t-58.5 -321.5q0 -299 166 -465t497 -166q193 0 412 68l31 -195q-111 -37 -240 -57.5t-233 -20.5q-209 0 -371 56.5t-271.5 164t-166 257t-56.5 333.5q0 219 76 408.5t213 328t318.5 213t388.5 74.5q195 0 347 -55t254.5 -154.5t154 -229.5t51.5 -282z" />
<glyph unicode="A" horiz-adv-x="1282" d="M686 938q-16 53 -30.5 105.5t-24.5 101.5h-4q-10 -49 -24.5 -102.5t-29.5 -102.5l-143 -434h399zM983 0l-94 295h-520l-97 -295h-268l463 1382h346l465 -1382h-295z" />
<glyph unicode="B" horiz-adv-x="1189" d="M825 412q0 96 -69.5 146t-220.5 50h-72t-53 -2v-391q23 -2 66.5 -4t82.5 -2q131 0 198.5 55.5t67.5 147.5zM784 999q0 84 -55 132.5t-180 48.5q-33 0 -66.5 -1t-72.5 -3v-367q23 -2 47 -2h71q127 0 191.5 50t64.5 142zM1112 424q0 -82 -32.5 -158t-101.5 -137t-176.5 -97 t-250.5 -36q-37 0 -174 2t-234 2v1380q55 2 175 6.5t249 4.5q248 0 373 -90.5t125 -262.5q0 -100 -53.5 -182t-147.5 -119v-2q57 -14 102.5 -42.5t78 -68.5t50 -90.5t17.5 -109.5z" />
<glyph unicode="C" horiz-adv-x="1159" d="M1077 47q-78 -31 -172 -47t-188 -16q-174 0 -298 53t-199 146t-108.5 211t-33.5 253q0 166 43 303t130 236.5t218 154t301 54.5q76 0 153.5 -10.5t141.5 -30.5l-37 -246q-125 49 -270 49q-96 0 -169 -33.5t-121 -96t-72.5 -147.5t-24.5 -188q0 -229 98 -349t301 -120 q63 0 137 16.5t129 43.5z" />
<glyph unicode="D" horiz-adv-x="1366" d="M1004 694q0 115 -24 202t-75 147.5t-134 92t-200 31.5q-47 0 -88 -2t-73 -4v-932q29 -4 67.5 -7t77.5 -3q98 0 180 28.5t142.5 87t93.5 148.5t33 211zM1290 715q0 -174 -54 -310.5t-155.5 -227.5t-242 -138t-310.5 -47q-90 0 -201.5 4t-183.5 6v1378q119 4 226.5 7.5 t220.5 3.5q164 0 293 -38t220 -120t139 -211t48 -307z" />
<glyph unicode="E" horiz-adv-x="1044" d="M143 0v1382h783v-223h-516v-340h473v-217h-473v-373h516v-229h-783z" />
<glyph unicode="F" horiz-adv-x="964" d="M410 1155v-360h456v-217h-456v-578h-267v1382h758v-227h-491z" />
<glyph unicode="G" horiz-adv-x="1382" d="M1245 66q-102 -41 -225 -63.5t-248 -22.5q-168 0 -299 46t-220 134t-134 212t-45 277q0 168 50 307.5t147.5 238.5t241.5 153.5t329 54.5q102 0 202.5 -16.5t188.5 -43.5l-53 -243q-160 66 -355 65q-119 0 -208 -36.5t-145 -103.5t-83 -154t-27 -187q0 -221 114 -343 t327 -122q96 0 176 25v481h266v-659z" />
<glyph unicode="H" horiz-adv-x="1404" d="M995 0v600h-585v-600h-267v1382h267v-553h585v553h269v-1382h-269z" />
<glyph unicode="I" horiz-adv-x="552" d="M143 0v1382h267v-1382h-267z" />
<glyph unicode="J" horiz-adv-x="710" d="M571 393q0 -90 -21.5 -164.5t-68.5 -130t-121.5 -86t-179.5 -30.5q-49 0 -93 4t-87 12v229q25 -8 64.5 -14t78.5 -6q80 0 120 43t40 147v985h268v-989z" />
<glyph unicode="K" horiz-adv-x="1222" d="M854 0l-444 664v-664h-267v1382h267v-626l446 626h324l-506 -663l530 -719h-350z" />
<glyph unicode="L" horiz-adv-x="878" d="M143 0v1382h267v-1151h448v-231h-715z" />
<glyph unicode="M" horiz-adv-x="1835" d="M1499 0l-84 680q-14 117 -22.5 236.5t-10.5 213.5h-4q-18 -92 -43.5 -188t-58.5 -197l-250 -745h-248l-239 717q-31 94 -64 213t-49 200h-4q-2 -90 -9 -208.5t-20 -247.5l-71 -674h-259l166 1382h371l242 -716q20 -61 39.5 -135t31.5 -146h5q16 84 32.5 154.5t34.5 126.5 l242 716h375l170 -1382h-273z" />
<glyph unicode="N" horiz-adv-x="1413" d="M1012 0h-23l-434 700q-94 156 -121.5 210.5t-54.5 117.5q4 -47 7 -108.5t6 -132t6 -169t3 -241.5v-377h-258v1382h258h56l405 -655q94 -154 116.5 -199t53.5 -114q-4 63 -9 168.5t-7 174t-3 134t-1 156.5v335h258v-1382h-258z" />
<glyph unicode="O" horiz-adv-x="1460" d="M1102 686q0 225 -94.5 352t-278.5 127q-82 0 -149.5 -30.5t-117.5 -90t-77 -147.5t-27 -199q0 -113 24 -201.5t70 -151t115.5 -95.5t161.5 -33q82 0 150.5 31t118 90t77 147t27.5 201zM1386 717q0 -174 -53 -313.5t-146 -234.5t-216 -143.5t-262 -48.5q-154 0 -274 46.5 t-199.5 135.5t-120.5 216t-41 291q0 174 53 313t146.5 234.5t216 143.5t262.5 48q154 0 273.5 -46t199.5 -135t120.5 -216t40.5 -291z" />
<glyph unicode="P" horiz-adv-x="1132" d="M1085 946q0 -106 -36.5 -197.5t-110.5 -161t-180.5 -107.5t-239.5 -38q-25 0 -48.5 1t-41.5 2l-18 1v-446h-267v1382q23 0 79.5 2t144.5 4.5t174 2.5q266 0 405 -119t139 -326zM811 918q0 117 -70.5 185t-216.5 68q-66 0 -114 -2v-497q6 -2 23.5 -4t45 -4t56.5 -2 q131 0 203.5 70.5t72.5 185.5z" />
<glyph unicode="Q" horiz-adv-x="1460" d="M1104 686q0 225 -95.5 352t-279.5 127q-82 0 -150.5 -30.5t-117.5 -90t-77 -147.5t-28 -199q0 -113 23.5 -201.5t71 -151t117 -95.5t161.5 -33q82 0 150.5 31t119 90t78 147t27.5 201zM1446 -135q-121 -16 -204 -5t-184.5 49t-152.5 53t-139 15h-57q-154 0 -274 46.5 t-199.5 135.5t-120.5 216t-41 291q0 174 53 313t146.5 234.5t216 143.5t262.5 48q154 0 273.5 -46t199.5 -135t120.5 -216t40.5 -291q0 -86 -13 -164t-37.5 -145.5t-60.5 -123t-81 -95t-96 -64.5q37 2 79 -8.5t76.5 -18.5t81.5 -12t111 4v-225z" />
<glyph unicode="R" horiz-adv-x="1177" d="M780 967q0 207 -250 207q-35 0 -69.5 -2.5t-50.5 -4.5v-409q14 0 46.5 -1t65.5 -1q123 0 190.5 55.5t67.5 155.5zM831 0l-348 557h-73v-557h-267v1382q47 2 159 5.5t247 3.5q121 0 215 -24t160.5 -72t101.5 -123.5t35 -180.5q0 -80 -23.5 -145.5t-65.5 -113.5t-98.5 -81 t-123.5 -49q14 -18 45.5 -60t60.5 -89l299 -453h-324z" />
<glyph unicode="S" horiz-adv-x="1030" d="M956 408q0 -94 -34.5 -173t-103 -136.5t-169 -89.5t-227.5 -32q-170 0 -322 37l29 256q70 -29 150.5 -45t156.5 -16q51 0 94 10t75 30.5t49.5 53.5t17.5 78q0 61 -39 101t-118 76t-152.5 67.5t-136 77t-103.5 117t-41 177.5q0 90 35 165t102.5 129.5t164.5 84t220 29.5 q57 0 125 -7t125 -20l-25 -233q-57 18 -118.5 28.5t-122.5 10.5q-113 0 -170.5 -42t-57.5 -118q0 -57 40 -97t117 -75t154 -68.5t140 -79t104 -118t41 -178.5z" />
<glyph unicode="T" horiz-adv-x="1044" d="M655 1155v-1155h-266v1155h-358v227h983v-227h-359z" />
<glyph unicode="U" horiz-adv-x="1394" d="M1251 537q0 -281 -147.5 -420.5t-425.5 -139.5q-158 0 -263.5 40t-165 109t-83 157t-23.5 196v903h267v-886q0 -70 13 -123.5t45 -92t88 -60t140 -21.5q156 0 223.5 73.5t67.5 247.5v862h264v-845z" />
<glyph unicode="V" horiz-adv-x="1286" d="M817 0h-346l-465 1382h295l266 -827q23 -80 44.5 -160t37.5 -147h4q18 76 40 157.5t44 153.5l269 823h274z" />
<glyph unicode="W" horiz-adv-x="1961" d="M1567 0h-330l-211 756q-14 53 -25.5 120.5t-19.5 131.5h-4q-25 -180 -43 -252l-207 -756h-332l-346 1382h285l184 -755q18 -94 33.5 -178t26.5 -166h4q12 84 27.5 169t37.5 171l209 759h266l215 -768q23 -80 41.5 -166t30.5 -165h4q12 94 24.5 174t28.5 153l183 772h262z " />
<glyph unicode="X" horiz-adv-x="1286" d="M930 0l-297 508l-297 -508h-316l441 707l-414 675h309l281 -479l278 479h304l-408 -673l455 -709h-336z" />
<glyph unicode="Y" horiz-adv-x="1148" d="M707 510v-510h-267v508l-444 874h293l192 -389q29 -59 51.5 -112.5t42.5 -106.5h5q20 51 45.5 108.5t60.5 129.5l184 370h283z" />
<glyph unicode="Z" horiz-adv-x="1099" d="M92 0v205l498 811q31 47 49 74.5t41 56.5q-45 -2 -102.5 -3t-149.5 -1h-319v239h892v-215l-526 -829q-27 -41 -37 -58.5t-26 -37.5q16 2 53 3t89 1h157h299v-246h-918z" />
<glyph unicode="[" horiz-adv-x="671" d="M145 -420v2011h453v-207h-207v-1593h207v-211h-453z" />
<glyph unicode="\" horiz-adv-x="980" d="M731 -330l-717 1880h258l717 -1880h-258z" />
<glyph unicode="]" horiz-adv-x="671" d="M74 -420v211h205v1593h-205v207h450v-2011h-450z" />
<glyph unicode="^" d="M811 690l-268 506l-256 -506l-174 92l336 600h200l350 -598z" />
<glyph unicode="_" d="M0 -504v211h1126v-211h-1126z" />
<glyph unicode="`" horiz-adv-x="716" d="M467 1143l-334 264l143 156l308 -295z" />
<glyph unicode="a" horiz-adv-x="1073" d="M666 453q-96 0 -162 -11.5t-104 -32t-54 -48t-16 -62.5q0 -51 33.5 -85t89.5 -34q45 0 85 20.5t68.5 55.5t44 78t15.5 88v31zM686 0q0 49 2 92t8 80l-2 2q-37 -88 -125 -141t-200 -53q-135 0 -213 81.5t-78 208.5q0 90 41 157t117.5 111t185 65.5t244.5 21.5v43 q0 90 -42 131t-141 41q-68 0 -150.5 -18.5t-158.5 -49.5l-41 199q92 31 192.5 50t188.5 19q117 0 197 -23.5t128 -69.5t68.5 -111.5t20.5 -153.5v-420q0 -68 2 -135.5t6 -126.5h-250z" />
<glyph unicode="b" horiz-adv-x="1144" d="M797 535q0 287 -174 286q-51 0 -92.5 -27.5t-69 -72.5t-43 -104.5t-15.5 -122.5v-287q55 -18 138 -19q55 0 102 18.5t81 60.5t53.5 108t19.5 160zM1071 561q0 -129 -37 -236.5t-107.5 -184.5t-173 -118.5t-233.5 -41.5q-111 0 -201 12t-178 37v1466h262v-438 q0 -47 -4 -102.5t-12 -96.5h2q39 84 120 132t187 48q184 0 279.5 -125t95.5 -352z" />
<glyph unicode="c" horiz-adv-x="870" d="M815 29q-59 -23 -135 -35t-152 -12q-106 0 -191 28.5t-144.5 88t-91 153.5t-31.5 223q0 119 31.5 221.5t95 178t161 118.5t230.5 43q59 0 116.5 -9t106.5 -26l-41 -225q-41 16 -90 27.5t-100 11.5q-117 0 -176.5 -86t-59.5 -227q0 -66 12.5 -120t41 -93t73.5 -60.5 t111 -21.5q106 0 198 41l35 -219v0z" />
<glyph unicode="d" horiz-adv-x="1144" d="M741 813q-37 8 -70.5 12t-66.5 4q-119 0 -187.5 -82.5t-68.5 -263.5q0 -289 174 -288q49 0 90 26.5t70 73.5t44 107.5t15 125.5v285zM758 0q0 39 3 84t9 86h-4q-43 -88 -127 -140.5t-195 -52.5q-182 0 -276 127t-94 351q0 129 36.5 235.5t106.5 184t170 119.5t225 42 q35 0 66 -2t63 -6v467h260v-1495h-243z" />
<glyph unicode="e" horiz-adv-x="1052" d="M715 629q2 104 -45 160.5t-131 56.5q-82 0 -137.5 -57.5t-63.5 -159.5h377zM975 606q0 -49 -3 -92t-5 -61h-631q0 -270 270 -271q147 0 307 54l27 -195q-86 -29 -181 -45t-184 -16q-248 0 -376.5 128t-128.5 392q0 115 32.5 213t96 171.5t153.5 113.5t201 40 q109 0 189.5 -32.5t132 -91t76 -137.5t24.5 -171z" />
<glyph unicode="f" horiz-adv-x="724" d="M748 1280q-16 4 -53.5 11t-78.5 7q-84 0 -122.5 -48t-38.5 -154v-78h237v-203h-237v-815h-260v815h-179v203h179v59q0 221 105.5 327.5t309.5 106.5q49 0 93.5 -5t62.5 -9z" />
<glyph unicode="g" horiz-adv-x="1105" d="M930 813q23 -57 22 -119q0 -84 -27.5 -152.5t-82 -119.5t-136 -79t-192.5 -28h-36.5t-35.5 2q-37 -29 -36 -61q0 -29 27.5 -44t117.5 -19l143 -5q178 -6 269.5 -80.5t91.5 -222.5q0 -84 -38 -156.5t-109.5 -127t-173 -85t-230.5 -30.5q-207 0 -327 74.5t-120 222.5 q0 78 45 144.5t117 111.5q-88 51 -88 151q0 119 121 187q-80 47 -117 119.5t-37 160.5q0 80 28 151t82 122t136 80.5t193 29.5q88 0 165 -22h342v-205h-114zM422 -8v-2q-49 -33 -73.5 -74t-24.5 -82q0 -72 58 -112.5t163 -40.5q127 0 188.5 49t61.5 120q0 55 -38 92.5 t-136 41.5l-156 4zM702 674q0 78 -46 127t-132 49t-132 -49t-46 -127t46 -127t132 -49t132 49t46 127z" />
<glyph unicode="h" horiz-adv-x="1169" d="M766 0v651q0 84 -28.5 126t-98.5 42q-49 0 -92 -25.5t-75 -71.5t-50.5 -106.5t-18.5 -126.5v-489h-262v1495h262v-438q0 -53 -4 -108.5t-14 -98.5h4q45 88 132 138t202 50q84 0 142.5 -24.5t94 -68.5t51 -102.5t15.5 -127.5v-715h-260z" />
<glyph unicode="i" horiz-adv-x="544" d="M141 0v1018h262v-1018h-262zM436 1327q0 -66 -48 -112t-116 -46t-114.5 46.5t-46.5 111.5q0 66 47 113t114 47q68 0 116 -46t48 -114z" />
<glyph unicode="j" horiz-adv-x="555" d="M412 -76q0 -104 -21.5 -184t-68 -135.5t-119 -84t-174.5 -28.5q-49 0 -94.5 6t-63.5 10l18 224q14 -6 51 -13.5t85 -7.5q70 0 98.5 41t28.5 146v1120h260v-1094zM444 1327q0 -66 -48 -112t-115 -46q-68 0 -116 46.5t-48 111.5q0 66 48 113t116 47t115.5 -46t47.5 -114z " />
<glyph unicode="k" horiz-adv-x="1071" d="M719 0l-316 504v-504h-262v1495h262v-901l297 424h308l-351 -455l390 -563h-328z" />
<glyph unicode="l" horiz-adv-x="544" d="M141 0v1495h262v-1495h-262z" />
<glyph unicode="m" horiz-adv-x="1773" d="M1370 0v643q0 88 -26.5 132t-94.5 44q-43 0 -85 -23.5t-75.5 -68.5t-53 -106.5t-19.5 -133.5v-487h-258v645q0 84 -25.5 129t-95.5 45q-45 0 -87 -24.5t-75 -69.5t-52.5 -106.5t-19.5 -131.5v-487h-262v1018h248q0 -39 -3 -90t-9 -92l2 -2q47 94 135 149t201 55 q66 0 115 -17t81.5 -46t53 -65t30.5 -74q18 39 49 74.5t73 64.5t95.5 46t114.5 17q150 0 227.5 -84t77.5 -254v-700h-262z" />
<glyph unicode="n" horiz-adv-x="1169" d="M766 0v651q0 84 -28.5 126t-98.5 42q-49 0 -92 -25.5t-75 -71.5t-50.5 -105.5t-18.5 -124.5v-492h-262v1018h248q0 -41 -4 -93.5t-10 -88.5h2q47 92 136 147t210 55q84 0 142.5 -24.5t94 -68.5t51 -102.5t15.5 -127.5v-715h-260z" />
<glyph unicode="o" horiz-adv-x="1132" d="M795 508q0 150 -59.5 229.5t-166.5 79.5q-53 0 -96 -19.5t-72.5 -58.5t-46 -96t-16.5 -133q0 -307 227 -307q104 0 167 76.5t63 228.5zM1065 532q0 -119 -35 -219t-101.5 -176t-163.5 -116.5t-218 -40.5q-111 0 -199 30.5t-150.5 93t-96 157.5t-33.5 224 q0 119 34.5 219.5t101 176t164 116.5t218.5 41q231 0 355 -129t124 -377z" />
<glyph unicode="p" horiz-adv-x="1144" d="M797 535q0 289 -174 288q-49 0 -90 -26.5t-70 -73.5t-44.5 -107.5t-15.5 -126.5v-282q61 -18 138 -19q57 0 103 19.5t81 60.5t53.5 108t18.5 159zM1071 563q0 -133 -35 -239.5t-102.5 -182t-167.5 -115.5t-231 -40q-39 0 -70 2t-62 6v-488h-262v1512h244q0 -43 -2 -88 t-8 -82h4q43 90 125 140t194 50q180 0 276.5 -124t96.5 -351z" />
<glyph unicode="q" horiz-adv-x="1144" d="M741 815q-37 6 -69.5 10t-67.5 4q-119 0 -187.5 -82.5t-68.5 -263.5q0 -289 172 -288q49 0 91 26.5t71 74.5t44 108.5t15 127.5v283zM741 -494v461q0 51 3.5 101.5t11.5 95.5l-4 2q-41 -88 -121 -138.5t-180 -50.5q-184 0 -280.5 122t-96.5 356q0 129 36.5 236.5 t107.5 184t174.5 118.5t236.5 42q102 0 193 -8t179 -22v-1500h-260z" />
<glyph unicode="r" horiz-adv-x="727" d="M686 782q-283 55 -283 -366v-416h-262v1018h248q0 -41 -5 -97.5t-13 -107.5h4q20 51 48 94t67.5 75t92 47t115.5 9z" />
<glyph unicode="s" horiz-adv-x="854" d="M774 311q0 -72 -27.5 -132t-84 -105t-139.5 -69.5t-191 -24.5q-61 0 -123 7t-111 19l15 217q47 -18 110.5 -29.5t120.5 -11.5q76 0 117 28t41 77q0 41 -28 66.5t-78 46t-107.5 43t-102.5 55t-73.5 88t-28.5 135.5q0 68 26.5 125t80 101t134.5 68.5t187 24.5q43 0 91 -5 t97 -13l-14 -207q-45 12 -92 20.5t-94 8.5q-72 0 -110 -26.5t-38 -72.5q0 -39 28 -64.5t79 -46t109.5 -45t103.5 -58t73.5 -87t28.5 -133.5z" />
<glyph unicode="t" horiz-adv-x="768" d="M707 8q-51 -12 -110.5 -20t-107.5 -8q-86 0 -143 17t-91 54t-49.5 98.5t-15.5 155.5v510h-174v203h174v313l263 70v-383h243v-203h-243v-461q0 -90 24.5 -122.5t89.5 -32.5q59 0 121 14z" />
<glyph unicode="u" horiz-adv-x="1167" d="M780 0q0 47 3 97t10 85h-2q-49 -94 -137.5 -148t-209.5 -54q-84 0 -142 24.5t-94 68.5t-51.5 102t-15.5 128v715h260v-651q0 -84 29 -126t98 -42q49 0 92.5 25.5t76 71.5t50 105.5t17.5 124.5v492h262v-1018h-246z" />
<glyph unicode="v" horiz-adv-x="1036" d="M672 0h-312l-350 1018h283l164 -492q23 -78 38 -136t27 -118h4q12 63 27.5 124t34.5 128l160 494h276z" />
<glyph unicode="w" horiz-adv-x="1630" d="M1294 0h-293l-145 463q-16 61 -30.5 121.5t-24.5 115.5h-2q-12 -59 -27.5 -120.5t-38.5 -147.5l-127 -432h-280l-306 1018h289l115 -424l30 -119q29 -119 40 -172h2q14 72 31.5 148.5t35.5 144.5l127 422h260l129 -422q25 -88 42.5 -157.5t29.5 -137.5h4 q10 66 26.5 132.5t41.5 160.5l118 424h267z" />
<glyph unicode="x" horiz-adv-x="1081" d="M729 0l-197 342l-196 -342h-293h-20l350 514l-330 504h20h293l197 -336l199 336h268h22l-319 -502l336 -516h-21h-309z" />
<glyph unicode="y" horiz-adv-x="1028" d="M633 -57q-47 -129 -101.5 -216t-119 -139.5t-139 -75t-167.5 -22.5q-39 0 -77.5 4t-55.5 8l27 224q14 -4 49 -10.5t74 -6.5t71.5 10.5t61.5 34t52.5 62.5t43.5 94l33 90l-375 1018h295l137 -400q23 -72 43.5 -143.5t40.5 -148.5h2q8 37 18.5 74.5t22 78.5t24.5 85t28 87 l118 367h281z" />
<glyph unicode="z" horiz-adv-x="921" d="M92 0v186l410 600q-33 -2 -90.5 -3t-126.5 -1h-181v236h713v-187l-401 -593q29 2 88 2h143h178v-240h-733z" />
<glyph unicode="{" horiz-adv-x="741" d="M627 -420q-199 0 -286 108.5t-87 348.5v276q0 123 -48 173.5t-157 56.5v196q55 4 93 15.5t62.5 35t37 65.5t12.5 106v178q0 229 87 340.5t286 111.5h43v-207q-51 0 -84 -10t-52.5 -36.5t-27.5 -72.5t-8 -122v-176q0 -156 -48.5 -232t-140.5 -92v-4q88 -12 138.5 -93 t50.5 -237v-274q0 -76 8 -123t27.5 -73.5t52 -37t84.5 -10.5v-211h-43z" />
<glyph unicode="|" horiz-adv-x="589" d="M186 -494v2048h209v-2048h-209z" />
<glyph unicode="}" horiz-adv-x="741" d="M692 543q-109 -6 -157 -56.5t-48 -173.5v-276q0 -240 -87 -348.5t-285 -108.5h-43v211q51 0 83.5 10.5t52 37t28 73.5t8.5 123v274q0 156 50 237t138 93v4q-90 12 -139 89t-49 229v182q0 76 -8.5 122t-28 72.5t-52 36.5t-83.5 10v207h43q199 0 285.5 -111.5t86.5 -340.5 v-172q0 -66 12.5 -109t37 -67.5t62.5 -36t93 -15.5v-196z" />
<glyph unicode="~" d="M1042 1159q0 -147 -84 -237.5t-225 -90.5q-80 0 -130 29t-102 90.5t-69.5 77.5t-54.5 16q-49 0 -71.5 -40.5t-24.5 -122.5h-195v37q0 147 84 237t225 90q80 0 130 -28.5t102.5 -91t70 -79t54.5 -16.5q49 0 71.5 41t24.5 125h194v-37z" />
<glyph unicode="&#xa1;" horiz-adv-x="657" d="M465 -432h-307l39 1065h225zM475 885q0 -66 -46 -111t-116 -45q-68 0 -113.5 45t-45.5 111t46 110.5t113 44.5q70 0 116 -44.5t46 -110.5z" />
<glyph unicode="&#xa2;" horiz-adv-x="929" d="M850 260q-41 -18 -93 -31.5t-104 -17.5v-260h-196v260q-92 12 -162 50t-116 101.5t-69.5 146.5t-23.5 183q0 96 24.5 180t72.5 151t117 111t157 60v227h196v-213q47 -4 96.5 -12t92.5 -22l-33 -220q-86 41 -197 41q-121 0 -187.5 -75.5t-66.5 -212.5q0 -61 14.5 -111.5 t44 -87.5t78 -57.5t115.5 -20.5q55 0 107.5 12.5t99.5 36.5z" />
<glyph unicode="&#xa3;" horiz-adv-x="974" d="M86 0v182q96 68 138 139.5t42 170.5q0 29 -1 56t-7 68h-199v201h177q-10 63 -16.5 113.5t-6.5 93.5q0 186 108.5 284.5t309.5 98.5q57 0 119.5 -8t107.5 -23l-45 -215q-37 14 -81 22.5t-87 8.5q-80 0 -124 -42t-44 -126q0 -31 5 -75t16 -132h276v-201h-252q2 -20 3 -34.5 t1 -26.5v-39q0 -94 -32.5 -165.5t-104.5 -135.5l45 5t57.5 4t61.5 2t55 1h316v-227h-838z" />
<glyph unicode="&#xa4;" d="M739 684q0 96 -41 149.5t-137 53.5q-70 0 -122 -52.5t-52 -156.5q0 -92 41 -152.5t135 -60.5q68 0 122 52t54 167zM854 96l-158 211q-72 -33 -151 -33q-33 0 -60.5 5.5t-52.5 13.5l-141 -195l-203 144l139 174q-33 47 -51 108.5t-18 143.5q0 150 80 252l-148 188l199 141 l145 -198q66 27 148 26q33 0 66.5 -5t64.5 -17l143 196l199 -145l-146 -182q29 -41 44.5 -99.5t15.5 -136.5q0 -72 -20.5 -134t-55.5 -110l162 -202z" />
<glyph unicode="&#xa5;" horiz-adv-x="1230" d="M809 633h254v-166h-318v-119h318v-170h-318v-178h-264v178h-317v170h317v119h-317v166h256l-375 749h291l182 -376q31 -61 54.5 -119t41.5 -113h4q20 61 49 127t64 131l178 350h281z" />
<glyph unicode="&#xa6;" horiz-adv-x="589" d="M186 -494v775h209v-775h-209zM186 801v753h209v-753h-209z" />
<glyph unicode="&#xa7;" horiz-adv-x="1085" d="M700 471q0 49 -22.5 92t-60 85t-87 86t-104.5 97q-35 -27 -50.5 -61.5t-15.5 -69.5q0 -45 18.5 -85t53.5 -80.5t86 -88t117 -104.5q35 25 50 59.5t15 69.5zM938 506q0 -90 -43 -167t-115 -130q35 -43 55.5 -95.5t20.5 -117.5q0 -63 -24.5 -123.5t-80 -109t-143.5 -77 t-213 -28.5q-35 0 -82 5t-88 15l17 220q82 -25 157 -25q92 0 134 36t42 89q0 47 -33.5 89t-83.5 85t-108.5 92t-109 107.5t-84 130t-33.5 164.5q0 92 42 167.5t114 129.5q-37 47 -56.5 97t-19.5 116q0 68 23.5 128t75.5 106t133 73.5t198 27.5q41 0 85 -3t83 -13l-15 -217 q-70 20 -145 20q-84 0 -121 -29.5t-37 -84.5q0 -45 34 -87t84 -87t109.5 -95.5t109.5 -111t84 -134t34 -163.5z" />
<glyph unicode="&#xa8;" horiz-adv-x="964" d="M416 1327q0 -59 -41 -100t-101 -41q-59 0 -100 41t-41 100t41 100t100 41t100.5 -41t41.5 -100zM831 1327q0 -59 -40.5 -100t-100.5 -41q-59 0 -100 41t-41 100t41 100t100 41t100 -41t41 -100z" />
<glyph unicode="&#xa9;" horiz-adv-x="1560" d="M983 362q-88 -41 -209 -40q-158 0 -244 96t-86 258q0 74 20.5 141.5t64.5 118.5t113 82t163 31q51 0 92 -8.5t76 -22.5l-29 -174q-23 16 -57.5 25.5t-71.5 9.5q-82 0 -117.5 -53.5t-35.5 -145.5q0 -178 143 -178q39 0 74.5 6t68.5 22l35 -168v0zM1280 682 q0 104 -39 196.5t-107.5 161t-159.5 108.5t-196 40q-104 0 -196.5 -40t-160 -107.5t-107.5 -160t-40 -196.5t40 -196.5t107.5 -161t160 -108.5t196.5 -40t195.5 40t160 107.5t107.5 160t39 196.5zM1479 684q0 -145 -55.5 -272t-150.5 -222.5t-222 -150.5t-273 -55 q-147 0 -275 54t-222.5 149.5t-148.5 222.5t-54 272t55 272t150.5 222.5t222.5 150.5t272 55t272.5 -54t222.5 -149.5t150.5 -222.5t55.5 -272z" />
<glyph unicode="&#xaa;" horiz-adv-x="825" d="M489 977q-113 0 -161.5 -23.5t-48.5 -76.5q0 -31 20 -49.5t55 -18.5q33 0 58.5 14.5t42 37t25.5 48t9 47.5v21zM102 360v203h637v-203h-637zM500 666q0 25 2 51t6 49h-2q-27 -55 -83 -87t-124 -32q-109 0 -163 55.5t-54 145.5q0 68 29.5 118t85 81.5t129 47t163.5 15.5 v31q0 18 -4 34.5t-17 31t-36.5 22.5t-62.5 8q-55 0 -113.5 -14.5t-110.5 -36.5l-18 170q57 23 129 35t145 12q84 0 141.5 -19.5t91.5 -53.5t48 -77t14 -96v-317q0 -35 1 -74t2 -64.5t1 -35.5h-200z" />
<glyph unicode="&#xab;" horiz-adv-x="1093" d="M305 201l-219 397l225 403l201 -92l-174 -309l178 -305zM772 211l-242 387l246 393l197 -94l-189 -297l193 -293z" />
<glyph unicode="&#xac;" d="M770 195v305h-690v219h921v-524h-231z" />
<glyph unicode="&#xae;" horiz-adv-x="1155" d="M627 1174q0 49 -62 49h-33v-105h23q37 0 54.5 16.5t17.5 39.5zM625 860l-78 174h-15v-174h-122v457h190q86 0 124 -35t38 -92q0 -53 -25.5 -85t-66.5 -44q18 -23 35 -55l67 -146h-147zM897 1085q0 66 -25.5 125.5t-68.5 103.5t-101.5 69.5t-123.5 25.5 q-68 0 -126.5 -25.5t-101.5 -68.5t-68.5 -101.5t-25.5 -126.5q0 -66 25.5 -125t68.5 -103t101.5 -69.5t126.5 -25.5q66 0 124 25.5t101 68.5t68.5 101t25.5 126zM1057 1085q0 -98 -38 -184t-103.5 -149.5t-152.5 -100.5t-185 -37q-100 0 -188.5 37t-153 100.5t-101.5 149.5 t-37 184t38 185.5t102.5 151t152.5 100.5t187 37q100 0 187 -36t151.5 -99.5t102.5 -151t38 -187.5z" />
<glyph unicode="&#xaf;" horiz-adv-x="819" d="M133 1229v188h553v-188h-553z" />
<glyph unicode="&#xb0;" horiz-adv-x="794" d="M502 1237q0 41 -25.5 80t-83.5 39q-49 0 -80.5 -34t-31.5 -89q0 -57 30.5 -89t79.5 -32q51 0 81 35t30 90zM696 1237q0 -72 -26.5 -126t-70.5 -91t-101.5 -55.5t-116.5 -18.5q-137 0 -216 76t-79 209q0 68 26.5 122t70.5 91t99.5 56.5t112.5 19.5q80 0 137.5 -22.5 t93.5 -61.5t53 -90.5t17 -108.5z" />
<glyph unicode="&#xb1;" d="M88 0v219h950v-219h-950zM688 709v-375h-250v375h-358v217h358v372h250v-372h359v-217h-359z" />
<glyph unicode="&#xb2;" horiz-adv-x="761" d="M72 733v176l147 150q94 96 139 156.5t45 115.5q0 51 -30.5 80t-89.5 29q-39 0 -87.5 -12.5t-84.5 -28.5l-31 182q51 23 126 36t140 13q150 0 234 -62.5t84 -187.5q0 -53 -11.5 -98t-33 -85t-52 -79t-73.5 -86l-103 -104q53 2 120 3t179 1v-199h-618z" />
<glyph unicode="&#xb3;" horiz-adv-x="745" d="M662 1010q0 -133 -108 -213t-290 -80q-45 0 -103.5 6t-103.5 16l27 164q31 -10 76 -15t88 -5q78 0 122 30.5t44 81.5q0 63 -77 93t-218 12v155q133 0 202.5 31t69.5 94q0 43 -31.5 65.5t-91.5 22.5q-41 0 -90 -9t-86 -25l-22 157q51 18 122.5 28.5t133.5 10.5 q150 0 228.5 -55t78.5 -164q0 -74 -32 -122t-95 -77q78 -23 117 -76.5t39 -125.5z" />
<glyph unicode="&#xb4;" horiz-adv-x="716" d="M252 1143l-119 125l307 295l144 -154z" />
<glyph unicode="&#xb6;" horiz-adv-x="1218" d="M600 473q-123 0 -216 35t-153.5 98.5t-90 146.5t-29.5 177q0 102 35.5 185t101 143.5t156 92t196.5 31.5v-909zM981 1174v-1371h-367v209h144v1370h356v-208h-133z" />
<glyph unicode="&#xb7;" horiz-adv-x="550" d="M446 610q0 -72 -50 -121t-120 -49q-72 0 -121 49.5t-49 120.5q0 70 49.5 119t120.5 49q70 0 120 -49t50 -119z" />
<glyph unicode="&#xb8;" horiz-adv-x="571" d="M373 -82q76 -104 62.5 -204.5t-103.5 -192.5h-199q78 92 86 166.5t-63 162.5z" />
<glyph unicode="&#xb9;" horiz-adv-x="606" d="M229 733v664l-168 -62l-38 193l243 86h215v-881h-252z" />
<glyph unicode="&#xba;" horiz-adv-x="872" d="M580 1028q0 94 -37 144.5t-107 50.5q-66 0 -104.5 -50.5t-38.5 -146.5q0 -47 9 -84t27.5 -61.5t45 -38t59.5 -13.5q68 0 107 51.5t39 147.5zM111 360v203h651v-203h-651zM791 1042q0 -84 -25 -155.5t-72 -124.5t-115.5 -83t-156.5 -30q-78 0 -141.5 21.5t-108.5 66.5 t-68.5 113t-23.5 160q0 84 24.5 155.5t72.5 126t116.5 84t157.5 29.5q78 0 140 -21.5t107 -66.5t69 -114t24 -161z" />
<glyph unicode="&#xbb;" horiz-adv-x="1093" d="M315 211l-196 94l190 297l-192 293l205 96l241 -387zM782 201l-202 92l176 309l-178 305l210 94l220 -397z" />
<glyph unicode="&#xbc;" horiz-adv-x="1740" d="M229 733v664l-168 -62l-38 193l243 86h215v-881h-252zM224 -307l-162 110l1335 1854l160 -113zM1548 -43v-185h-221v185h-404l-14 161l301 535h338v-512h129v-184h-129zM1325 509l-205 -372q18 0 46 1t57.5 1h53h48.5v370z" />
<glyph unicode="&#xbd;" horiz-adv-x="1757" d="M229 733v664l-168 -62l-38 193l243 86h215v-881h-252zM224 -307l-162 110l1335 1854l160 -113zM1055 -228v176l147 150q94 96 139 156.5t45 115.5q0 51 -30.5 80t-89.5 29q-39 0 -87.5 -12.5t-84.5 -28.5l-31 182q51 23 126 36t140 13q150 0 234 -62.5t84 -187.5 q0 -53 -11.5 -98t-33 -85t-52 -79t-73.5 -86l-103 -104q53 2 120 3t179 1v-199h-618z" />
<glyph unicode="&#xbe;" horiz-adv-x="1777" d="M261 -307l-162 110l1335 1854l160 -113zM662 1010q0 -133 -108 -213t-290 -80q-45 0 -103.5 6t-103.5 16l27 164q31 -10 76 -15t88 -5q78 0 122 30.5t44 81.5q0 63 -77 93t-218 12v155q133 0 202.5 31t69.5 94q0 43 -31.5 65.5t-91.5 22.5q-41 0 -90 -9t-86 -25l-22 157 q51 18 122.5 28.5t133.5 10.5q150 0 228.5 -55t78.5 -164q0 -74 -32 -122t-95 -77q78 -23 117 -76.5t39 -125.5zM1587 -43v-185h-221v185h-404l-14 161l301 535h338v-512h129v-184h-129zM1364 509l-205 -372q18 0 46 1t57.5 1h53h48.5v370z" />
<glyph unicode="&#xbf;" horiz-adv-x="923" d="M754 -451q-170 4 -293 40t-205 93.5t-121 131t-39 153.5q0 86 30 146.5t72 106.5t89 86t80.5 86t47 102.5t-11.5 138.5h256q33 -96 25 -167t-39 -124t-75 -95t-86 -80t-71.5 -79t-29.5 -92q0 -92 106.5 -147.5t296.5 -61.5zM688 885q0 -66 -46 -111t-114 -45t-113.5 45 t-45.5 111t46 110.5t113 44.5q68 0 114 -44.5t46 -110.5z" />
<glyph unicode="&#xc0;" horiz-adv-x="1282" d="M686 938q-16 53 -30.5 105.5t-24.5 101.5h-4q-10 -49 -24.5 -102.5t-29.5 -102.5l-143 -434h399zM983 0l-94 295h-520l-97 -295h-268l463 1382h346l465 -1382h-295zM761 1466l-442 109l62 188l423 -153z" />
<glyph unicode="&#xc1;" horiz-adv-x="1282" d="M686 938q-16 53 -30.5 105.5t-24.5 101.5h-4q-10 -49 -24.5 -102.5t-29.5 -102.5l-143 -434h399zM983 0l-94 295h-520l-97 -295h-268l463 1382h346l465 -1382h-295zM498 1466l-43 144l426 153l59 -188z" />
<glyph unicode="&#xc2;" horiz-adv-x="1282" d="M686 938q-16 53 -30.5 105.5t-24.5 101.5h-4q-10 -49 -24.5 -102.5t-29.5 -102.5l-143 -434h399zM983 0l-94 295h-520l-97 -295h-268l463 1382h346l465 -1382h-295zM914 1464l-279 113l-280 -113l-60 135l344 173l336 -170z" />
<glyph unicode="&#xc3;" horiz-adv-x="1282" d="M686 938q-16 53 -30.5 105.5t-24.5 101.5h-4q-10 -49 -24.5 -102.5t-29.5 -102.5l-143 -434h399zM983 0l-94 295h-520l-97 -295h-268l463 1382h346l465 -1382h-295zM1022 1659q-94 -168 -258 -168q-47 0 -82 13.5t-76 39t-58 34.5t-44 9q-68 0 -119 -88l-131 90 q94 168 258 168q47 0 83 -13t76 -39t58.5 -35t44.5 -9q35 0 63.5 21.5t53.5 64.5z" />
<glyph unicode="&#xc4;" horiz-adv-x="1282" d="M686 938q-16 53 -30.5 105.5t-24.5 101.5h-4q-10 -49 -24.5 -102.5t-29.5 -102.5l-143 -434h399zM983 0l-94 295h-520l-97 -295h-268l463 1382h346l465 -1382h-295zM995 1614q0 -59 -41 -100t-100 -41t-100.5 40.5t-41.5 100.5q0 59 41 100t101 41q59 0 100 -41t41 -100z M553 1614q0 -59 -41 -100t-101 -41q-59 0 -100 40.5t-41 100.5q0 59 41 100t100 41t100.5 -41t41.5 -100z" />
<glyph unicode="&#xc5;" horiz-adv-x="1282" d="M686 938q-16 53 -30.5 105.5t-24.5 101.5h-4q-10 -49 -24.5 -102.5t-29.5 -102.5l-143 -434h399zM983 0l-94 295h-520l-97 -295h-268l463 1382h346l465 -1382h-295zM916 1696q0 -111 -79 -178.5t-204 -67.5q-127 0 -195.5 57.5t-68.5 169.5q0 111 80 178.5t205 67.5 t193.5 -57t68.5 -170zM740 1686q0 109 -96 108q-43 0 -70 -27.5t-27 -78.5q0 -109 95 -109q43 0 70.5 28t27.5 79z" />
<glyph unicode="&#xc6;" horiz-adv-x="1636" d="M760 1161h-19q-29 -74 -58.5 -142.5t-68.5 -148.5l-182 -356h328v647zM760 0v305h-418l-147 -305h-273l684 1382h907v-223h-493v-340h455v-217h-455v-373h500v-229h-760z" />
<glyph unicode="&#xc7;" horiz-adv-x="1159" d="M1077 47q-78 -31 -172 -47t-188 -16q-174 0 -298 53t-199 146t-108.5 211t-33.5 253q0 166 43 303t130 236.5t218 154t301 54.5q76 0 153.5 -10.5t141.5 -30.5l-37 -246q-125 49 -270 49q-96 0 -169 -33.5t-121 -96t-72.5 -147.5t-24.5 -188q0 -229 98 -349t301 -120 q63 0 137 16.5t129 43.5zM744 -82q76 -104 62.5 -204.5t-103.5 -192.5h-199q78 92 86 166.5t-63 162.5z" />
<glyph unicode="&#xc8;" horiz-adv-x="1044" d="M143 0v1382h783v-223h-516v-340h473v-217h-473v-373h516v-229h-783zM655 1466l-442 109l62 188l423 -153z" />
<glyph unicode="&#xc9;" horiz-adv-x="1044" d="M143 0v1382h783v-223h-516v-340h473v-217h-473v-373h516v-229h-783zM391 1466l-43 144l426 153l59 -188z" />
<glyph unicode="&#xca;" horiz-adv-x="1044" d="M143 0v1382h783v-223h-516v-340h473v-217h-473v-373h516v-229h-783zM809 1464l-279 113l-280 -113l-60 135l344 173l336 -170z" />
<glyph unicode="&#xcb;" horiz-adv-x="1044" d="M143 0v1382h783v-223h-516v-340h473v-217h-473v-373h516v-229h-783zM885 1614q0 -59 -41 -100t-100 -41t-100.5 40.5t-41.5 100.5q0 59 41 100t101 41q59 0 100 -41t41 -100zM443 1614q0 -59 -41 -100t-101 -41q-59 0 -100 40.5t-41 100.5q0 59 41 100t100 41t100.5 -41 t41.5 -100z" />
<glyph unicode="&#xcc;" horiz-adv-x="552" d="M143 0v1382h267v-1382h-267zM405 1466l-442 109l62 188l423 -153z" />
<glyph unicode="&#xcd;" horiz-adv-x="552" d="M143 0v1382h267v-1382h-267zM153 1466l-43 144l426 153l59 -188z" />
<glyph unicode="&#xce;" horiz-adv-x="552" d="M143 0v1382h267v-1382h-267zM557 1464l-279 113l-280 -113l-60 135l344 173l336 -170z" />
<glyph unicode="&#xcf;" horiz-adv-x="552" d="M143 0v1382h267v-1382h-267zM626 1614q0 -59 -40.5 -100t-100.5 -41q-59 0 -100 40.5t-41 100.5q0 59 41 100t100 41t100 -41t41 -100zM213 1614q0 -59 -41 -100t-101 -41q-59 0 -100 40.5t-41 100.5q0 59 41 100t100 41t100.5 -41t41.5 -100z" />
<glyph unicode="&#xd0;" horiz-adv-x="1384" d="M1022 694q0 115 -23.5 202t-76 147.5t-135 92t-199.5 31.5q-47 0 -88 -2t-74 -4v-352h250v-203h-250v-377q29 -4 67.5 -7t77.5 -3q100 0 182.5 28.5t142.5 87t93 148.5t33 211zM1309 715q0 -172 -53.5 -307.5t-152.5 -227.5t-240.5 -140t-315.5 -48q-90 0 -202 4t-183 6 v604h-154v203h154v571q119 4 227.5 7.5t220.5 3.5q164 0 292 -38t219 -120t139.5 -211t48.5 -307z" />
<glyph unicode="&#xd1;" horiz-adv-x="1413" d="M1012 0h-23l-434 700q-94 156 -121.5 210.5t-54.5 117.5q4 -47 7 -108.5t6 -132t6 -169t3 -241.5v-377h-258v1382h258h56l405 -655q94 -154 116.5 -199t53.5 -114q-4 63 -9 168.5t-7 174t-3 134t-1 156.5v335h258v-1382h-258zM1098 1659q-94 -168 -258 -168 q-47 0 -82 13.5t-76 39t-58 34.5t-44 9q-68 0 -119 -88l-131 90q94 168 258 168q47 0 83 -13t76 -39t58.5 -35t44.5 -9q35 0 63.5 21.5t53.5 64.5z" />
<glyph unicode="&#xd2;" horiz-adv-x="1460" d="M1102 686q0 225 -94.5 352t-278.5 127q-82 0 -149.5 -30.5t-117.5 -90t-77 -147.5t-27 -199q0 -113 24 -201.5t70 -151t115.5 -95.5t161.5 -33q82 0 150.5 31t118 90t77 147t27.5 201zM1386 717q0 -174 -53 -313.5t-146 -234.5t-216 -143.5t-262 -48.5q-154 0 -274 46.5 t-199.5 135.5t-120.5 216t-41 291q0 174 53 313t146.5 234.5t216 143.5t262.5 48q154 0 273.5 -46t199.5 -135t120.5 -216t40.5 -291zM854 1466l-442 109l62 188l423 -153z" />
<glyph unicode="&#xd3;" horiz-adv-x="1460" d="M1102 686q0 225 -94.5 352t-278.5 127q-82 0 -149.5 -30.5t-117.5 -90t-77 -147.5t-27 -199q0 -113 24 -201.5t70 -151t115.5 -95.5t161.5 -33q82 0 150.5 31t118 90t77 147t27.5 201zM1386 717q0 -174 -53 -313.5t-146 -234.5t-216 -143.5t-262 -48.5q-154 0 -274 46.5 t-199.5 135.5t-120.5 216t-41 291q0 174 53 313t146.5 234.5t216 143.5t262.5 48q154 0 273.5 -46t199.5 -135t120.5 -216t40.5 -291zM618 1466l-43 144l426 153l59 -188z" />
<glyph unicode="&#xd4;" horiz-adv-x="1460" d="M1102 686q0 225 -94.5 352t-278.5 127q-82 0 -149.5 -30.5t-117.5 -90t-77 -147.5t-27 -199q0 -113 24 -201.5t70 -151t115.5 -95.5t161.5 -33q82 0 150.5 31t118 90t77 147t27.5 201zM1386 717q0 -174 -53 -313.5t-146 -234.5t-216 -143.5t-262 -48.5q-154 0 -274 46.5 t-199.5 135.5t-120.5 216t-41 291q0 174 53 313t146.5 234.5t216 143.5t262.5 48q154 0 273.5 -46t199.5 -135t120.5 -216t40.5 -291zM1024 1464l-279 113l-280 -113l-60 135l344 173l336 -170z" />
<glyph unicode="&#xd5;" horiz-adv-x="1460" d="M1102 686q0 225 -94.5 352t-278.5 127q-82 0 -149.5 -30.5t-117.5 -90t-77 -147.5t-27 -199q0 -113 24 -201.5t70 -151t115.5 -95.5t161.5 -33q82 0 150.5 31t118 90t77 147t27.5 201zM1386 717q0 -174 -53 -313.5t-146 -234.5t-216 -143.5t-262 -48.5q-154 0 -274 46.5 t-199.5 135.5t-120.5 216t-41 291q0 174 53 313t146.5 234.5t216 143.5t262.5 48q154 0 273.5 -46t199.5 -135t120.5 -216t40.5 -291zM1116 1659q-94 -168 -258 -168q-47 0 -82 13.5t-76 39t-58 34.5t-44 9q-68 0 -119 -88l-131 90q94 168 258 168q47 0 83 -13t76 -39 t58.5 -35t44.5 -9q35 0 63.5 21.5t53.5 64.5z" />
<glyph unicode="&#xd6;" horiz-adv-x="1460" d="M1102 686q0 225 -94.5 352t-278.5 127q-82 0 -149.5 -30.5t-117.5 -90t-77 -147.5t-27 -199q0 -113 24 -201.5t70 -151t115.5 -95.5t161.5 -33q82 0 150.5 31t118 90t77 147t27.5 201zM1386 717q0 -174 -53 -313.5t-146 -234.5t-216 -143.5t-262 -48.5q-154 0 -274 46.5 t-199.5 135.5t-120.5 216t-41 291q0 174 53 313t146.5 234.5t216 143.5t262.5 48q154 0 273.5 -46t199.5 -135t120.5 -216t40.5 -291zM1098 1614q0 -59 -41 -100t-100 -41t-100.5 40.5t-41.5 100.5q0 59 41 100t101 41q59 0 100 -41t41 -100zM656 1614q0 -59 -41 -100 t-101 -41q-59 0 -100 40.5t-41 100.5q0 59 41 100t100 41t100.5 -41t41.5 -100z" />
<glyph unicode="&#xd7;" d="M870 141l-315 316l-315 -316l-144 144l316 315l-316 315l160 160l315 -315l316 315l143 -143l-315 -316l315 -315z" />
<glyph unicode="&#xd8;" horiz-adv-x="1460" d="M434 340l422 809q-25 12 -59.5 18.5t-67.5 6.5q-84 0 -154.5 -31t-122 -91.5t-79 -149.5t-27.5 -204q0 -66 8 -121t21.5 -99t28 -75.5t30.5 -62.5zM1026 1042q-98 -188 -168 -322t-138.5 -265t-115.5 -222q27 -10 60.5 -17t64.5 -7q84 0 154.5 30.5t123 92t80 150.5 t27.5 204q0 121 -25.5 204.5t-62.5 151.5zM1262 1495l-107 -207q113 -82 172 -225t59 -346q0 -174 -53 -313.5t-146 -234.5t-216 -143.5t-262 -48.5q-59 0 -115.5 8.5t-104.5 24.5l-106 -209l-184 86l106 207q-55 41 -98 96.5t-73 127t-45 158.5t-15 190q0 174 53 313 t146.5 234.5t216 143.5t262.5 48q59 0 115.5 -8t103.5 -25l106 209z" />
<glyph unicode="&#xd9;" horiz-adv-x="1394" d="M1251 537q0 -281 -147.5 -420.5t-425.5 -139.5q-158 0 -263.5 40t-165 109t-83 157t-23.5 196v903h267v-886q0 -70 13 -123.5t45 -92t88 -60t140 -21.5q156 0 223.5 73.5t67.5 247.5v862h264v-845zM778 1466l-442 109l62 188l423 -153z" />
<glyph unicode="&#xda;" horiz-adv-x="1394" d="M1251 537q0 -281 -147.5 -420.5t-425.5 -139.5q-158 0 -263.5 40t-165 109t-83 157t-23.5 196v903h267v-886q0 -70 13 -123.5t45 -92t88 -60t140 -21.5q156 0 223.5 73.5t67.5 247.5v862h264v-845zM651 1466l-43 144l426 153l59 -188z" />
<glyph unicode="&#xdb;" horiz-adv-x="1394" d="M1251 537q0 -281 -147.5 -420.5t-425.5 -139.5q-158 0 -263.5 40t-165 109t-83 157t-23.5 196v903h267v-886q0 -70 13 -123.5t45 -92t88 -60t140 -21.5q156 0 223.5 73.5t67.5 247.5v862h264v-845zM981 1464l-279 113l-280 -113l-60 135l344 173l336 -170z" />
<glyph unicode="&#xdc;" horiz-adv-x="1394" d="M1251 537q0 -281 -147.5 -420.5t-425.5 -139.5q-158 0 -263.5 40t-165 109t-83 157t-23.5 196v903h267v-886q0 -70 13 -123.5t45 -92t88 -60t140 -21.5q156 0 223.5 73.5t67.5 247.5v862h264v-845zM1059 1614q0 -59 -41 -100t-100 -41t-100.5 40.5t-41.5 100.5 q0 59 41 100t101 41q59 0 100 -41t41 -100zM617 1614q0 -59 -41 -100t-101 -41q-59 0 -100 40.5t-41 100.5q0 59 41 100t100 41t100.5 -41t41.5 -100z" />
<glyph unicode="&#xdd;" horiz-adv-x="1148" d="M707 510v-510h-267v508l-444 874h293l192 -389q29 -59 51.5 -112.5t42.5 -106.5h5q20 51 45.5 108.5t60.5 129.5l184 370h283zM514 1466l-43 144l426 153l59 -188z" />
<glyph unicode="&#xde;" horiz-adv-x="1116" d="M811 725q0 117 -70.5 185.5t-216.5 68.5q-33 0 -65.5 -1t-48.5 -3v-498q16 -2 51 -5t74 -3q131 0 203.5 70.5t72.5 185.5zM1085 754q0 -106 -36.5 -197.5t-110.5 -161t-180.5 -107.5t-239.5 -38q-33 0 -63.5 2t-44.5 2v-254h-267v1382h267v-186q16 0 53 1t78 1 q266 0 405 -118.5t139 -325.5z" />
<glyph unicode="&#xdf;" horiz-adv-x="1243" d="M1180 322q0 -76 -31 -140.5t-87 -109.5t-134 -70t-172 -25q-137 0 -217 29l14 215q43 -18 91 -29.5t95 -11.5q86 0 128 33t42 82q0 41 -24.5 70.5t-71.5 59.5t-94 58.5t-86 64.5t-63.5 90t-24.5 128q0 80 30.5 132t89 107.5t85 90t26.5 92.5q0 57 -41 88t-112 31 q-106 0 -163 -70t-57 -213v-1024h-262v1012q0 131 38 227t105.5 155.5t155.5 87t193 27.5q94 0 171 -20.5t131 -60t84 -97t30 -127.5q0 -88 -32 -142t-94.5 -105.5t-87 -80t-24.5 -79.5q0 -41 24.5 -71t72.5 -60.5t95.5 -60.5t86 -66.5t64.5 -89.5t26 -127z" />
<glyph unicode="&#xe0;" horiz-adv-x="1073" d="M666 453q-96 0 -162 -11.5t-104 -32t-54 -48t-16 -62.5q0 -51 33.5 -85t89.5 -34q45 0 85 20.5t68.5 55.5t44 78t15.5 88v31zM686 0q0 49 2 92t8 80l-2 2q-37 -88 -125 -141t-200 -53q-135 0 -213 81.5t-78 208.5q0 90 41 157t117.5 111t185 65.5t244.5 21.5v43 q0 90 -42 131t-141 41q-68 0 -150.5 -18.5t-158.5 -49.5l-41 199q92 31 192.5 50t188.5 19q117 0 197 -23.5t128 -69.5t68.5 -111.5t20.5 -153.5v-420q0 -68 2 -135.5t6 -126.5h-250zM576 1143l-334 264l143 156l308 -295z" />
<glyph unicode="&#xe1;" horiz-adv-x="1073" d="M666 453q-96 0 -162 -11.5t-104 -32t-54 -48t-16 -62.5q0 -51 33.5 -85t89.5 -34q45 0 85 20.5t68.5 55.5t44 78t15.5 88v31zM686 0q0 49 2 92t8 80l-2 2q-37 -88 -125 -141t-200 -53q-135 0 -213 81.5t-78 208.5q0 90 41 157t117.5 111t185 65.5t244.5 21.5v43 q0 90 -42 131t-141 41q-68 0 -150.5 -18.5t-158.5 -49.5l-41 199q92 31 192.5 50t188.5 19q117 0 197 -23.5t128 -69.5t68.5 -111.5t20.5 -153.5v-420q0 -68 2 -135.5t6 -126.5h-250zM506 1143l-119 125l307 295l144 -154z" />
<glyph unicode="&#xe2;" horiz-adv-x="1073" d="M666 453q-96 0 -162 -11.5t-104 -32t-54 -48t-16 -62.5q0 -51 33.5 -85t89.5 -34q45 0 85 20.5t68.5 55.5t44 78t15.5 88v31zM686 0q0 49 2 92t8 80l-2 2q-37 -88 -125 -141t-200 -53q-135 0 -213 81.5t-78 208.5q0 90 41 157t117.5 111t185 65.5t244.5 21.5v43 q0 90 -42 131t-141 41q-68 0 -150.5 -18.5t-158.5 -49.5l-41 199q92 31 192.5 50t188.5 19q117 0 197 -23.5t128 -69.5t68.5 -111.5t20.5 -153.5v-420q0 -68 2 -135.5t6 -126.5h-250zM755 1147l-210 166l-216 -166l-100 119l318 278l311 -276z" />
<glyph unicode="&#xe3;" horiz-adv-x="1073" d="M666 453q-96 0 -162 -11.5t-104 -32t-54 -48t-16 -62.5q0 -51 33.5 -85t89.5 -34q45 0 85 20.5t68.5 55.5t44 78t15.5 88v31zM686 0q0 49 2 92t8 80l-2 2q-37 -88 -125 -141t-200 -53q-135 0 -213 81.5t-78 208.5q0 90 41 157t117.5 111t185 65.5t244.5 21.5v43 q0 90 -42 131t-141 41q-68 0 -150.5 -18.5t-158.5 -49.5l-41 199q92 31 192.5 50t188.5 19q117 0 197 -23.5t128 -69.5t68.5 -111.5t20.5 -153.5v-420q0 -68 2 -135.5t6 -126.5h-250zM909 1364q-92 -182 -247 -182q-47 0 -81 14t-73 42t-56.5 38t-43.5 10q-61 0 -113 -92 l-125 96q92 182 250 183q45 0 79 -14.5t73.5 -42t57 -38t42.5 -10.5q61 0 113 92z" />
<glyph unicode="&#xe4;" horiz-adv-x="1073" d="M666 453q-96 0 -162 -11.5t-104 -32t-54 -48t-16 -62.5q0 -51 33.5 -85t89.5 -34q45 0 85 20.5t68.5 55.5t44 78t15.5 88v31zM686 0q0 49 2 92t8 80l-2 2q-37 -88 -125 -141t-200 -53q-135 0 -213 81.5t-78 208.5q0 90 41 157t117.5 111t185 65.5t244.5 21.5v43 q0 90 -42 131t-141 41q-68 0 -150.5 -18.5t-158.5 -49.5l-41 199q92 31 192.5 50t188.5 19q117 0 197 -23.5t128 -69.5t68.5 -111.5t20.5 -153.5v-420q0 -68 2 -135.5t6 -126.5h-250zM473 1327q0 -59 -41 -100t-101 -41q-59 0 -100 41t-41 100t41 100t100 41t100.5 -41 t41.5 -100zM888 1327q0 -59 -40.5 -100t-100.5 -41q-59 0 -100 41t-41 100t41 100t100 41t100 -41t41 -100z" />
<glyph unicode="&#xe5;" horiz-adv-x="1073" d="M666 453q-96 0 -162 -11.5t-104 -32t-54 -48t-16 -62.5q0 -51 33.5 -85t89.5 -34q45 0 85 20.5t68.5 55.5t44 78t15.5 88v31zM686 0q0 49 2 92t8 80l-2 2q-37 -88 -125 -141t-200 -53q-135 0 -213 81.5t-78 208.5q0 90 41 157t117.5 111t185 65.5t244.5 21.5v43 q0 90 -42 131t-141 41q-68 0 -150.5 -18.5t-158.5 -49.5l-41 199q92 31 192.5 50t188.5 19q117 0 197 -23.5t128 -69.5t68.5 -111.5t20.5 -153.5v-420q0 -68 2 -135.5t6 -126.5h-250zM815 1382q0 -115 -78 -186.5t-201 -71.5q-125 0 -191.5 59.5t-66.5 178.5q0 55 20.5 102 t58.5 82t89 53.5t113 18.5q125 0 190.5 -59.5t65.5 -176.5zM643 1370q0 59 -23.5 85.5t-71.5 26.5q-43 0 -70.5 -28.5t-27.5 -81.5q0 -113 96 -113q43 0 70 29t27 82z" />
<glyph unicode="&#xe6;" horiz-adv-x="1638" d="M666 453q-96 0 -162 -11.5t-104 -32t-54 -48t-16 -62.5q0 -51 33.5 -85t89.5 -34q45 0 85 20.5t68.5 55.5t44 78t15.5 88v31zM1300 633q2 102 -45 157.5t-131 55.5q-82 0 -136 -57.5t-64 -155.5h376zM1561 606q0 -45 -3.5 -87t-5.5 -60h-630q0 -276 270 -277 q74 0 150.5 13.5t156.5 40.5l27 -195q-86 -29 -181.5 -45t-183.5 -16q-164 0 -268.5 55t-144.5 151h-3q-51 -94 -147 -150t-221 -56q-141 0 -220 80.5t-79 209.5q0 90 41 157t117.5 111t185 65.5t244.5 21.5v43q0 90 -42 131t-141 41q-68 0 -150.5 -18.5t-158.5 -49.5 l-41 199q92 31 192.5 50t188.5 19q109 0 188.5 -29.5t128.5 -97.5h3q47 57 126.5 91t178.5 34q109 0 189.5 -32.5t131.5 -91t76 -137.5t25 -171z" />
<glyph unicode="&#xe7;" horiz-adv-x="870" d="M815 29q-59 -23 -135 -35t-152 -12q-106 0 -191 28.5t-144.5 88t-91 153.5t-31.5 223q0 119 31.5 221.5t95 178t161 118.5t230.5 43q59 0 116.5 -9t106.5 -26l-41 -225q-41 16 -90 27.5t-100 11.5q-117 0 -176.5 -86t-59.5 -227q0 -66 12.5 -120t41 -93t73.5 -60.5 t111 -21.5q106 0 198 41l35 -219v0zM570 -82q76 -104 62.5 -204.5t-103.5 -192.5h-199q78 92 86 166.5t-63 162.5z" />
<glyph unicode="&#xe8;" horiz-adv-x="1052" d="M715 629q2 104 -45 160.5t-131 56.5q-82 0 -137.5 -57.5t-63.5 -159.5h377zM975 606q0 -49 -3 -92t-5 -61h-631q0 -270 270 -271q147 0 307 54l27 -195q-86 -29 -181 -45t-184 -16q-248 0 -376.5 128t-128.5 392q0 115 32.5 213t96 171.5t153.5 113.5t201 40 q109 0 189.5 -32.5t132 -91t76 -137.5t24.5 -171zM580 1143l-334 264l143 156l308 -295z" />
<glyph unicode="&#xe9;" horiz-adv-x="1052" d="M715 629q2 104 -45 160.5t-131 56.5q-82 0 -137.5 -57.5t-63.5 -159.5h377zM975 606q0 -49 -3 -92t-5 -61h-631q0 -270 270 -271q147 0 307 54l27 -195q-86 -29 -181 -45t-184 -16q-248 0 -376.5 128t-128.5 392q0 115 32.5 213t96 171.5t153.5 113.5t201 40 q109 0 189.5 -32.5t132 -91t76 -137.5t24.5 -171zM512 1143l-119 125l307 295l144 -154z" />
<glyph unicode="&#xea;" horiz-adv-x="1052" d="M715 629q2 104 -45 160.5t-131 56.5q-82 0 -137.5 -57.5t-63.5 -159.5h377zM975 606q0 -49 -3 -92t-5 -61h-631q0 -270 270 -271q147 0 307 54l27 -195q-86 -29 -181 -45t-184 -16q-248 0 -376.5 128t-128.5 392q0 115 32.5 213t96 171.5t153.5 113.5t201 40 q109 0 189.5 -32.5t132 -91t76 -137.5t24.5 -171zM757 1147l-210 166l-216 -166l-100 119l318 278l311 -276z" />
<glyph unicode="&#xeb;" horiz-adv-x="1052" d="M715 629q2 104 -45 160.5t-131 56.5q-82 0 -137.5 -57.5t-63.5 -159.5h377zM975 606q0 -49 -3 -92t-5 -61h-631q0 -270 270 -271q147 0 307 54l27 -195q-86 -29 -181 -45t-184 -16q-248 0 -376.5 128t-128.5 392q0 115 32.5 213t96 171.5t153.5 113.5t201 40 q109 0 189.5 -32.5t132 -91t76 -137.5t24.5 -171zM479 1327q0 -59 -41 -100t-101 -41q-59 0 -100 41t-41 100t41 100t100 41t100.5 -41t41.5 -100zM894 1327q0 -59 -40.5 -100t-100.5 -41q-59 0 -100 41t-41 100t41 100t100 41t100 -41t41 -100z" />
<glyph unicode="&#xec;" horiz-adv-x="544" d="M141 0v1018h262v-1018h-262zM251 1135l-227 342l188 100l193 -358z" />
<glyph unicode="&#xed;" horiz-adv-x="544" d="M141 0v1018h262v-1018h-262zM276 1139l-143 102l234 332l176 -119z" />
<glyph unicode="&#xee;" horiz-adv-x="544" d="M141 0v1018h262v-1018h-262zM454 1147l-180 166l-186 -166l-94 117l280 278l281 -274z" />
<glyph unicode="&#xef;" horiz-adv-x="544" d="M141 0v1018h262v-1018h-262zM606 1327q0 -57 -42 -99t-99 -42q-59 0 -100.5 42t-41.5 99q0 59 41 100t101 41q59 0 100 -41t41 -100zM227 1327q0 -57 -42 -99t-99 -42q-59 0 -100.5 41t-41.5 100t41 100t101 41q59 0 100 -41t41 -100z" />
<glyph unicode="&#xf0;" horiz-adv-x="1136" d="M788 532q0 131 -54 208t-169 77q-45 0 -86 -18.5t-71.5 -55t-49 -94t-18.5 -137.5q0 -152 61.5 -230.5t169.5 -78.5q94 0 155.5 78.5t61.5 250.5zM1061 569q0 -150 -40 -260t-109.5 -184t-162 -109.5t-198.5 -35.5t-194.5 30.5t-153 94t-100 159.5t-35.5 228 q0 123 36.5 222t103 170.5t157 110.5t196.5 39q47 0 92 -14t70 -49q-14 25 -27.5 46t-23.5 38q-20 35 -47 69.5t-62 71.5l-188 -84l-107 123l172 76q-35 29 -73.5 58.5t-81.5 57.5l256 109q74 -55 141 -123l182 80l105 -123l-176 -76q129 -160 198.5 -343t69.5 -382z" />
<glyph unicode="&#xf1;" horiz-adv-x="1169" d="M766 0v651q0 84 -28.5 126t-98.5 42q-49 0 -92 -25.5t-75 -71.5t-50.5 -105.5t-18.5 -124.5v-492h-262v1018h248q0 -41 -4 -93.5t-10 -88.5h2q47 92 136 147t210 55q84 0 142.5 -24.5t94 -68.5t51 -102.5t15.5 -127.5v-715h-260zM958 1364q-92 -182 -247 -182 q-47 0 -81 14t-73 42t-56.5 38t-43.5 10q-61 0 -113 -92l-125 96q92 182 250 183q45 0 79 -14.5t73.5 -42t57 -38t42.5 -10.5q61 0 113 92z" />
<glyph unicode="&#xf2;" horiz-adv-x="1132" d="M795 508q0 150 -59.5 229.5t-166.5 79.5q-53 0 -96 -19.5t-72.5 -58.5t-46 -96t-16.5 -133q0 -307 227 -307q104 0 167 76.5t63 228.5zM1065 532q0 -119 -35 -219t-101.5 -176t-163.5 -116.5t-218 -40.5q-111 0 -199 30.5t-150.5 93t-96 157.5t-33.5 224 q0 119 34.5 219.5t101 176t164 116.5t218.5 41q231 0 355 -129t124 -377zM606 1143l-334 264l143 156l308 -295z" />
<glyph unicode="&#xf3;" horiz-adv-x="1132" d="M795 508q0 150 -59.5 229.5t-166.5 79.5q-53 0 -96 -19.5t-72.5 -58.5t-46 -96t-16.5 -133q0 -307 227 -307q104 0 167 76.5t63 228.5zM1065 532q0 -119 -35 -219t-101.5 -176t-163.5 -116.5t-218 -40.5q-111 0 -199 30.5t-150.5 93t-96 157.5t-33.5 224 q0 119 34.5 219.5t101 176t164 116.5t218.5 41q231 0 355 -129t124 -377zM537 1143l-119 125l307 295l144 -154z" />
<glyph unicode="&#xf4;" horiz-adv-x="1132" d="M795 508q0 150 -59.5 229.5t-166.5 79.5q-53 0 -96 -19.5t-72.5 -58.5t-46 -96t-16.5 -133q0 -307 227 -307q104 0 167 76.5t63 228.5zM1065 532q0 -119 -35 -219t-101.5 -176t-163.5 -116.5t-218 -40.5q-111 0 -199 30.5t-150.5 93t-96 157.5t-33.5 224 q0 119 34.5 219.5t101 176t164 116.5t218.5 41q231 0 355 -129t124 -377zM790 1147l-210 166l-216 -166l-100 119l318 278l311 -276z" />
<glyph unicode="&#xf5;" horiz-adv-x="1132" d="M795 508q0 150 -59.5 229.5t-166.5 79.5q-53 0 -96 -19.5t-72.5 -58.5t-46 -96t-16.5 -133q0 -307 227 -307q104 0 167 76.5t63 228.5zM1065 532q0 -119 -35 -219t-101.5 -176t-163.5 -116.5t-218 -40.5q-111 0 -199 30.5t-150.5 93t-96 157.5t-33.5 224 q0 119 34.5 219.5t101 176t164 116.5t218.5 41q231 0 355 -129t124 -377zM952 1364q-92 -182 -247 -182q-47 0 -81 14t-73 42t-56.5 38t-43.5 10q-61 0 -113 -92l-125 96q92 182 250 183q45 0 79 -14.5t73.5 -42t57 -38t42.5 -10.5q61 0 113 92z" />
<glyph unicode="&#xf6;" horiz-adv-x="1132" d="M795 508q0 150 -59.5 229.5t-166.5 79.5q-53 0 -96 -19.5t-72.5 -58.5t-46 -96t-16.5 -133q0 -307 227 -307q104 0 167 76.5t63 228.5zM1065 532q0 -119 -35 -219t-101.5 -176t-163.5 -116.5t-218 -40.5q-111 0 -199 30.5t-150.5 93t-96 157.5t-33.5 224 q0 119 34.5 219.5t101 176t164 116.5t218.5 41q231 0 355 -129t124 -377zM510 1327q0 -59 -41 -100t-101 -41q-59 0 -100 41t-41 100t41 100t100 41t100.5 -41t41.5 -100zM925 1327q0 -59 -40.5 -100t-100.5 -41q-59 0 -100 41t-41 100t41 100t100 41t100 -41t41 -100z" />
<glyph unicode="&#xf7;" d="M721 199q0 -66 -47 -113t-113 -47t-113 47t-47 113t47.5 112.5t112.5 46.5q66 0 113 -46.5t47 -112.5zM80 500v219h967v-219h-967zM721 1020q0 -66 -47 -113t-113 -47t-113 47t-47 113t47.5 113t112.5 47q66 0 113 -47t47 -113z" />
<glyph unicode="&#xf8;" horiz-adv-x="1132" d="M643 821q-14 6 -33.5 9.5t-38.5 3.5q-59 0 -106 -21.5t-80 -62.5t-50.5 -102.5t-17.5 -139.5q0 -113 41 -221zM815 510q0 115 -41 221l-285 -534q31 -12 72 -13q119 0 186.5 85t67.5 241zM1065 532q0 -119 -35 -219t-101.5 -176t-163.5 -116.5t-218 -40.5q-88 0 -160 22 l-102 -192l-146 63l103 190q-86 63 -130 170t-44 252q0 119 34.5 219.5t101 176t164 116.5t218.5 41q88 0 159 -22l103 192l145 -63l-102 -191q86 -63 130 -170t44 -252z" />
<glyph unicode="&#xf9;" horiz-adv-x="1167" d="M780 0q0 47 3 97t10 85h-2q-49 -94 -137.5 -148t-209.5 -54q-84 0 -142 24.5t-94 68.5t-51.5 102t-15.5 128v715h260v-651q0 -84 29 -126t98 -42q49 0 92.5 25.5t76 71.5t50 105.5t17.5 124.5v492h262v-1018h-246zM604 1143l-334 264l143 156l308 -295z" />
<glyph unicode="&#xfa;" horiz-adv-x="1167" d="M780 0q0 47 3 97t10 85h-2q-49 -94 -137.5 -148t-209.5 -54q-84 0 -142 24.5t-94 68.5t-51.5 102t-15.5 128v715h260v-651q0 -84 29 -126t98 -42q49 0 92.5 25.5t76 71.5t50 105.5t17.5 124.5v492h262v-1018h-246zM569 1143l-119 125l307 295l144 -154z" />
<glyph unicode="&#xfb;" horiz-adv-x="1167" d="M780 0q0 47 3 97t10 85h-2q-49 -94 -137.5 -148t-209.5 -54q-84 0 -142 24.5t-94 68.5t-51.5 102t-15.5 128v715h260v-651q0 -84 29 -126t98 -42q49 0 92.5 25.5t76 71.5t50 105.5t17.5 124.5v492h262v-1018h-246zM794 1147l-210 166l-216 -166l-100 119l318 278 l311 -276z" />
<glyph unicode="&#xfc;" horiz-adv-x="1167" d="M780 0q0 47 3 97t10 85h-2q-49 -94 -137.5 -148t-209.5 -54q-84 0 -142 24.5t-94 68.5t-51.5 102t-15.5 128v715h260v-651q0 -84 29 -126t98 -42q49 0 92.5 25.5t76 71.5t50 105.5t17.5 124.5v492h262v-1018h-246zM516 1327q0 -59 -41 -100t-101 -41q-59 0 -100 41 t-41 100t41 100t100 41t100.5 -41t41.5 -100zM931 1327q0 -59 -40.5 -100t-100.5 -41q-59 0 -100 41t-41 100t41 100t100 41t100 -41t41 -100z" />
<glyph unicode="&#xfd;" horiz-adv-x="1028" d="M633 -57q-47 -129 -101.5 -216t-119 -139.5t-139 -75t-167.5 -22.5q-39 0 -77.5 4t-55.5 8l27 224q14 -4 49 -10.5t74 -6.5t71.5 10.5t61.5 34t52.5 62.5t43.5 94l33 90l-375 1018h295l137 -400q23 -72 43.5 -143.5t40.5 -148.5h2q8 37 18.5 74.5t22 78.5t24.5 85t28 87 l118 367h281zM518 1143l-119 125l307 295l144 -154z" />
<glyph unicode="&#xfe;" horiz-adv-x="1144" d="M797 535q0 289 -174 288q-49 0 -90 -26.5t-70 -73.5t-44.5 -107.5t-15.5 -126.5v-282q61 -18 138 -19q57 0 103 19.5t81 60.5t53.5 108t18.5 159zM1071 563q0 -133 -35 -239.5t-102.5 -182t-167.5 -115.5t-231 -40q-39 0 -70 2t-62 6v-488h-262v1989h262v-418 q0 -57 -2 -111.5t-8 -97.5h4q41 78 117 124t184 46q180 0 276.5 -124t96.5 -351z" />
<glyph unicode="&#xff;" horiz-adv-x="1028" d="M633 -57q-47 -129 -101.5 -216t-119 -139.5t-139 -75t-167.5 -22.5q-39 0 -77.5 4t-55.5 8l27 224q14 -4 49 -10.5t74 -6.5t71.5 10.5t61.5 34t52.5 62.5t43.5 94l33 90l-375 1018h295l137 -400q23 -72 43.5 -143.5t40.5 -148.5h2q8 37 18.5 74.5t22 78.5t24.5 85t28 87 l118 367h281zM455 1327q0 -59 -41 -100t-101 -41q-59 0 -100 41t-41 100t41 100t100 41t100.5 -41t41.5 -100zM870 1327q0 -59 -40.5 -100t-100.5 -41q-59 0 -100 41t-41 100t41 100t100 41t100 -41t41 -100z" />
<glyph unicode="&#x100;" horiz-adv-x="1282" d="M686 938q-16 53 -30.5 105.5t-24.5 101.5h-4q-10 -49 -24.5 -102.5t-29.5 -102.5l-143 -434h399zM983 0l-94 295h-520l-97 -295h-268l463 1382h346l465 -1382h-295zM332 1518v165h600v-165h-600z" />
<glyph unicode="&#x101;" horiz-adv-x="1073" d="M666 453q-96 0 -162 -11.5t-104 -32t-54 -48t-16 -62.5q0 -51 33.5 -85t89.5 -34q45 0 85 20.5t68.5 55.5t44 78t15.5 88v31zM686 0q0 49 2 92t8 80l-2 2q-37 -88 -125 -141t-200 -53q-135 0 -213 81.5t-78 208.5q0 90 41 157t117.5 111t185 65.5t244.5 21.5v43 q0 90 -42 131t-141 41q-68 0 -150.5 -18.5t-158.5 -49.5l-41 199q92 31 192.5 50t188.5 19q117 0 197 -23.5t128 -69.5t68.5 -111.5t20.5 -153.5v-420q0 -68 2 -135.5t6 -126.5h-250zM266 1229v188h553v-188h-553z" />
<glyph unicode="&#x102;" horiz-adv-x="1282" d="M686 938q-16 53 -30.5 105.5t-24.5 101.5h-4q-10 -49 -24.5 -102.5t-29.5 -102.5l-143 -434h399zM983 0l-94 295h-520l-97 -295h-268l463 1382h346l465 -1382h-295zM924 1759q0 -57 -18.5 -108.5t-56.5 -89t-93 -59t-125 -21.5t-124 21.5t-91 60.5t-55.5 89t-18.5 107 h156q0 -49 39 -83t96 -34q61 0 98 33t37 84h156z" />
<glyph unicode="&#x103;" horiz-adv-x="1073" d="M666 453q-96 0 -162 -11.5t-104 -32t-54 -48t-16 -62.5q0 -51 33.5 -85t89.5 -34q45 0 85 20.5t68.5 55.5t44 78t15.5 88v31zM686 0q0 49 2 92t8 80l-2 2q-37 -88 -125 -141t-200 -53q-135 0 -213 81.5t-78 208.5q0 90 41 157t117.5 111t185 65.5t244.5 21.5v43 q0 90 -42 131t-141 41q-68 0 -150.5 -18.5t-158.5 -49.5l-41 199q92 31 192.5 50t188.5 19q117 0 197 -23.5t128 -69.5t68.5 -111.5t20.5 -153.5v-420q0 -68 2 -135.5t6 -126.5h-250zM827 1475q0 -63 -17.5 -120t-52 -101t-89 -68.5t-125.5 -24.5q-72 0 -125.5 25.5 t-87 68.5t-49 99.5t-15.5 120.5h170q0 -55 28.5 -90t80.5 -35q51 0 80.5 31.5t29.5 93.5h172z" />
<glyph unicode="&#x104;" horiz-adv-x="1282" d="M686 938q-16 53 -30.5 105.5t-24.5 101.5h-4q-10 -49 -24.5 -102.5t-29.5 -102.5l-143 -434h399zM1354 -383q-57 -51 -125 -76.5t-144 -25.5q-119 0 -187.5 55t-68.5 154q0 72 39 143.5t115 132.5l-94 295h-520l-97 -295h-268l463 1382h346l465 -1382 q-111 -49 -157 -106.5t-46 -116.5q0 -68 72 -68q63 0 133 49z" />
<glyph unicode="&#x105;" horiz-adv-x="1073" d="M666 453q-96 0 -162 -11.5t-104 -32t-54 -48t-16 -62.5q0 -51 33.5 -85t89.5 -34q45 0 85 20.5t68.5 55.5t44 78t15.5 88v31zM1053 -383q-57 -51 -125 -76.5t-144 -25.5q-117 0 -185.5 55t-68.5 154q0 82 43 155.5t132 140.5q-12 96 -11 146h-2q-43 -84 -128 -135 t-195 -51q-135 0 -213 81.5t-78 208.5q0 90 41 157t117.5 111t185 65.5t244.5 21.5v43q0 90 -42 131t-141 41q-68 0 -150.5 -18.5t-158.5 -49.5l-41 199q92 31 192.5 50t188.5 19q117 0 197 -23.5t128 -69.5t68.5 -111.5t20.5 -153.5v-346q0 -96 6 -181t18 -155 q-96 -57 -137 -113.5t-41 -109.5q0 -33 18.5 -50.5t53.5 -17.5q33 0 66.5 12.5t68.5 36.5z" />
<glyph unicode="&#x106;" horiz-adv-x="1159" d="M1077 47q-78 -31 -172 -47t-188 -16q-174 0 -298 53t-199 146t-108.5 211t-33.5 253q0 166 43 303t130 236.5t218 154t301 54.5q76 0 153.5 -10.5t141.5 -30.5l-37 -246q-125 49 -270 49q-96 0 -169 -33.5t-121 -96t-72.5 -147.5t-24.5 -188q0 -229 98 -349t301 -120 q63 0 137 16.5t129 43.5zM579 1466l-43 144l426 153l59 -188z" />
<glyph unicode="&#x107;" horiz-adv-x="870" d="M815 29q-59 -23 -135 -35t-152 -12q-106 0 -191 28.5t-144.5 88t-91 153.5t-31.5 223q0 119 31.5 221.5t95 178t161 118.5t230.5 43q59 0 116.5 -9t106.5 -26l-41 -225q-41 16 -90 27.5t-100 11.5q-117 0 -176.5 -86t-59.5 -227q0 -66 12.5 -120t41 -93t73.5 -60.5 t111 -21.5q106 0 198 41l35 -219v0zM467 1143l-119 125l307 295l144 -154z" />
<glyph unicode="&#x10c;" horiz-adv-x="1159" d="M1077 47q-78 -31 -172 -47t-188 -16q-174 0 -298 53t-199 146t-108.5 211t-33.5 253q0 166 43 303t130 236.5t218 154t301 54.5q76 0 153.5 -10.5t141.5 -30.5l-37 -246q-125 49 -270 49q-96 0 -169 -33.5t-121 -96t-72.5 -147.5t-24.5 -188q0 -229 98 -349t301 -120 q63 0 137 16.5t129 43.5zM692 1464l-336 168l64 140l276 -113l281 113l59 -132z" />
<glyph unicode="&#x10d;" horiz-adv-x="870" d="M815 29q-59 -23 -135 -35t-152 -12q-106 0 -191 28.5t-144.5 88t-91 153.5t-31.5 223q0 119 31.5 221.5t95 178t161 118.5t230.5 43q59 0 116.5 -9t106.5 -26l-41 -225q-41 16 -90 27.5t-100 11.5q-117 0 -176.5 -86t-59.5 -227q0 -66 12.5 -120t41 -93t73.5 -60.5 t111 -21.5q106 0 198 41l35 -219v0zM518 1147l-311 274l103 123l213 -168l215 168l98 -121z" />
<glyph unicode="&#x10e;" horiz-adv-x="1366" d="M1004 694q0 115 -24 202t-75 147.5t-134 92t-200 31.5q-47 0 -88 -2t-73 -4v-932q29 -4 67.5 -7t77.5 -3q98 0 180 28.5t142.5 87t93.5 148.5t33 211zM1290 715q0 -174 -54 -310.5t-155.5 -227.5t-242 -138t-310.5 -47q-90 0 -201.5 4t-183.5 6v1378q119 4 226.5 7.5 t220.5 3.5q164 0 293 -38t220 -120t139 -211t48 -307zM596 1464l-336 168l64 140l276 -113l281 113l59 -132z" />
<glyph unicode="&#x10f;" horiz-adv-x="1251" d="M741 813q-37 8 -70.5 12t-66.5 4q-119 0 -187.5 -82.5t-68.5 -263.5q0 -289 174 -288q49 0 90 26.5t70 73.5t44 107.5t15 125.5v285zM758 0q0 39 3 84t9 86h-4q-43 -88 -127 -140.5t-195 -52.5q-182 0 -276 127t-94 351q0 129 36.5 235.5t106.5 184t170 119.5t225 42 q35 0 66 -2t63 -6v467h260v-1495h-243zM1243 1133l-170 36l103 420l209 -45z" />
<glyph unicode="&#x110;" horiz-adv-x="1384" d="M1022 694q0 115 -23.5 202t-76 147.5t-135 92t-199.5 31.5q-47 0 -88 -2t-74 -4v-352h250v-203h-250v-377q29 -4 67.5 -7t77.5 -3q100 0 182.5 28.5t142.5 87t93 148.5t33 211zM1309 715q0 -172 -53.5 -307.5t-152.5 -227.5t-240.5 -140t-315.5 -48q-90 0 -202 4t-183 6 v604h-154v203h154v571q119 4 227.5 7.5t220.5 3.5q164 0 292 -38t219 -120t139.5 -211t48.5 -307z" />
<glyph unicode="&#x111;" horiz-adv-x="1144" d="M741 813q-37 8 -70.5 12t-66.5 4q-119 0 -187.5 -82.5t-68.5 -263.5q0 -289 174 -288q49 0 90 26.5t70 73.5t44 107.5t15 125.5v285zM1001 1192v-1192h-243q0 39 3 84t9 86h-4q-43 -88 -127 -140.5t-195 -52.5q-182 0 -276 127t-94 351q0 129 36.5 235.5t106.5 184 t170 119.5t225 42q35 0 66 -2t63 -6v164h-215v166h215v137h260v-137h125v-166h-125z" />
<glyph unicode="&#x112;" horiz-adv-x="1044" d="M143 0v1382h783v-223h-516v-340h473v-217h-473v-373h516v-229h-783zM223 1518v165h600v-165h-600z" />
<glyph unicode="&#x113;" horiz-adv-x="1052" d="M715 629q2 104 -45 160.5t-131 56.5q-82 0 -137.5 -57.5t-63.5 -159.5h377zM975 606q0 -49 -3 -92t-5 -61h-631q0 -270 270 -271q147 0 307 54l27 -195q-86 -29 -181 -45t-184 -16q-248 0 -376.5 128t-128.5 392q0 115 32.5 213t96 171.5t153.5 113.5t201 40 q109 0 189.5 -32.5t132 -91t76 -137.5t24.5 -171zM262 1229v188h553v-188h-553z" />
<glyph unicode="&#x116;" horiz-adv-x="1044" d="M143 0v1382h783v-223h-516v-340h473v-217h-473v-373h516v-229h-783zM684 1626q0 -66 -46 -112t-109 -46q-66 0 -112 46.5t-46 111.5q0 63 46 109.5t112 46.5t110.5 -45t44.5 -111z" />
<glyph unicode="&#x117;" horiz-adv-x="1052" d="M715 629q2 104 -45 160.5t-131 56.5q-82 0 -137.5 -57.5t-63.5 -159.5h377zM975 606q0 -49 -3 -92t-5 -61h-631q0 -270 270 -271q147 0 307 54l27 -195q-86 -29 -181 -45t-184 -16q-248 0 -376.5 128t-128.5 392q0 115 32.5 213t96 171.5t153.5 113.5t201 40 q109 0 189.5 -32.5t132 -91t76 -137.5t24.5 -171zM702 1337q0 -66 -45 -111t-110 -45q-66 0 -112 45.5t-46 110.5q0 66 46 112t112 46t110.5 -46t44.5 -112z" />
<glyph unicode="&#x118;" horiz-adv-x="1044" d="M985 -383q-57 -51 -124.5 -76.5t-143.5 -25.5q-117 0 -185.5 55t-68.5 154q0 76 44 152.5t118 123.5h-482v1382h783v-223h-516v-340h473v-217h-473v-373h516v-223q-100 -29 -159.5 -97.5t-59.5 -131.5q0 -33 19 -50.5t54 -17.5q63 0 133 49z" />
<glyph unicode="&#x119;" horiz-adv-x="1052" d="M715 629q2 104 -45 160.5t-131 56.5q-82 0 -137.5 -57.5t-63.5 -159.5h377zM969 -383q-57 -51 -125 -76.5t-142 -25.5q-119 0 -187.5 55t-68.5 154q0 68 36 138t106 128q-12 -2 -27.5 -4t-30.5 -2q-92 0 -173 25.5t-146.5 85t-103 160.5t-37.5 245q0 115 32.5 213 t96 171.5t153.5 113.5t201 40q109 0 189.5 -32.5t132 -91t76 -137.5t24.5 -171q0 -45 -3 -89t-5 -64h-631q0 -270 270 -271q74 0 151 13.5t156 40.5l27 -193q-55 -20 -101 -51t-79 -67t-51.5 -73.5t-18.5 -74.5q0 -33 19.5 -50.5t54.5 -17.5q63 0 133 49z" />
<glyph unicode="&#x11a;" horiz-adv-x="1044" d="M143 0v1382h783v-223h-516v-340h473v-217h-473v-373h516v-229h-783zM520 1464l-336 168l64 140l276 -113l281 113l59 -132z" />
<glyph unicode="&#x11b;" horiz-adv-x="1052" d="M715 629q2 104 -45 160.5t-131 56.5q-82 0 -137.5 -57.5t-63.5 -159.5h377zM975 606q0 -49 -3 -92t-5 -61h-631q0 -270 270 -271q147 0 307 54l27 -195q-86 -29 -181 -45t-184 -16q-248 0 -376.5 128t-128.5 392q0 115 32.5 213t96 171.5t153.5 113.5t201 40 q109 0 189.5 -32.5t132 -91t76 -137.5t24.5 -171zM540 1147l-311 274l103 123l213 -168l215 168l98 -121z" />
<glyph unicode="&#x11e;" horiz-adv-x="1382" d="M1245 66q-102 -41 -225 -63.5t-248 -22.5q-168 0 -299 46t-220 134t-134 212t-45 277q0 168 50 307.5t147.5 238.5t241.5 153.5t329 54.5q102 0 202.5 -16.5t188.5 -43.5l-53 -243q-160 66 -355 65q-119 0 -208 -36.5t-145 -103.5t-83 -154t-27 -187q0 -221 114 -343 t327 -122q96 0 176 25v481h266v-659zM1090 1759q0 -57 -18.5 -108.5t-56.5 -89t-93 -59t-125 -21.5t-124 21.5t-91 60.5t-55.5 89t-18.5 107h156q0 -49 39 -83t96 -34q61 0 98 33t37 84h156z" />
<glyph unicode="&#x11f;" horiz-adv-x="1105" d="M930 813q23 -57 22 -119q0 -84 -27.5 -152.5t-82 -119.5t-136 -79t-192.5 -28h-36.5t-35.5 2q-37 -29 -36 -61q0 -29 27.5 -44t117.5 -19l143 -5q178 -6 269.5 -80.5t91.5 -222.5q0 -84 -38 -156.5t-109.5 -127t-173 -85t-230.5 -30.5q-207 0 -327 74.5t-120 222.5 q0 78 45 144.5t117 111.5q-88 51 -88 151q0 119 121 187q-80 47 -117 119.5t-37 160.5q0 80 28 151t82 122t136 80.5t193 29.5q88 0 165 -22h342v-205h-114zM422 -8v-2q-49 -33 -73.5 -74t-24.5 -82q0 -72 58 -112.5t163 -40.5q127 0 188.5 49t61.5 120q0 55 -38 92.5 t-136 41.5l-156 4zM702 674q0 78 -46 127t-132 49t-132 -49t-46 -127t46 -127t132 -49t132 49t46 127zM829 1475q0 -63 -17.5 -120t-52 -101t-89 -68.5t-125.5 -24.5q-72 0 -125.5 25.5t-87 68.5t-49 99.5t-15.5 120.5h170q0 -55 28.5 -90t80.5 -35q51 0 80.5 31.5 t29.5 93.5h172z" />
<glyph unicode="&#x122;" horiz-adv-x="1382" d="M1245 66q-102 -41 -225 -63.5t-248 -22.5q-168 0 -299 46t-220 134t-134 212t-45 277q0 168 50 307.5t147.5 238.5t241.5 153.5t329 54.5q102 0 202.5 -16.5t188.5 -43.5l-53 -243q-160 66 -355 65q-119 0 -208 -36.5t-145 -103.5t-83 -154t-27 -187q0 -221 114 -343 t327 -122q96 0 176 25v481h266v-659zM784 -96q55 0 90 -37t35 -98q0 -39 -16 -77t-50 -73t-88.5 -64.5t-133.5 -50.5l-41 95q59 33 79.5 57.5t20.5 52.5q0 23 -8 42.5t-8 37.5q0 47 32.5 81t87.5 34z" />
<glyph unicode="&#x123;" horiz-adv-x="1105" d="M930 813q23 -57 22 -119q0 -84 -27.5 -152.5t-82 -119.5t-136 -79t-192.5 -28h-36.5t-35.5 2q-37 -29 -36 -61q0 -29 27.5 -44t117.5 -19l143 -5q178 -6 269.5 -80.5t91.5 -222.5q0 -84 -38 -156.5t-109.5 -127t-173 -85t-230.5 -30.5q-207 0 -327 74.5t-120 222.5 q0 78 45 144.5t117 111.5q-88 51 -88 151q0 119 121 187q-80 47 -117 119.5t-37 160.5q0 80 28 151t82 122t136 80.5t193 29.5q88 0 165 -22h342v-205h-114zM422 -8v-2q-49 -33 -73.5 -74t-24.5 -82q0 -72 58 -112.5t163 -40.5q127 0 188.5 49t61.5 120q0 55 -38 92.5 t-136 41.5l-156 4zM702 674q0 78 -46 127t-132 49t-132 -49t-46 -127t46 -127t132 -49t132 49t46 127zM514 1149q-59 0 -94 48t-26.5 116.5t78 134t206.5 100.5l43 -94q-80 -41 -95.5 -76t1.5 -73q20 -59 -12.5 -107.5t-100.5 -48.5z" />
<glyph unicode="&#x12a;" horiz-adv-x="552" d="M143 0v1382h267v-1382h-267zM-23 1518v165h600v-165h-600z" />
<glyph unicode="&#x12b;" horiz-adv-x="544" d="M141 0v1018h262v-1018h-262zM14 1229v188h523v-188h-523z" />
<glyph unicode="&#x12e;" horiz-adv-x="552" d="M532 -383q-57 -51 -124.5 -76.5t-143.5 -25.5q-117 0 -185.5 55t-68.5 154q0 74 35 141t98 137v1380h267v-1382q-84 -59 -120 -115.5t-36 -107.5q0 -33 18.5 -50.5t53.5 -17.5q33 0 66.5 12.5t68.5 36.5z" />
<glyph unicode="&#x12f;" horiz-adv-x="544" d="M528 -383q-57 -51 -124.5 -76.5t-141.5 -25.5q-119 0 -187.5 55t-68.5 154q0 74 35 142t100 136v1016h262v-1018q-82 -59 -117.5 -116.5t-35.5 -106.5q0 -33 19.5 -50.5t54.5 -17.5q33 0 65.5 12.5t67.5 36.5zM436 1327q0 -66 -48 -112t-116 -46t-114.5 46.5t-46.5 111.5 q0 66 47 113t114 47q68 0 116 -46t48 -114z" />
<glyph unicode="&#x130;" horiz-adv-x="552" d="M143 0v1382h267v-1382h-267zM436 1626q0 -66 -46 -112t-109 -46q-66 0 -112 46.5t-46 111.5q0 63 46 109.5t112 46.5t110.5 -45t44.5 -111z" />
<glyph unicode="&#x131;" horiz-adv-x="544" d="M141 0v1018h262v-1018h-262z" />
<glyph unicode="&#x136;" horiz-adv-x="1222" d="M854 0l-444 664v-664h-267v1382h267v-626l446 626h324l-506 -663l530 -719h-350zM616 -96q55 0 90 -37t35 -98q0 -39 -16 -77t-50 -73t-88.5 -64.5t-133.5 -50.5l-41 95q59 33 79.5 57.5t20.5 52.5q0 23 -8 42.5t-8 37.5q0 47 32.5 81t87.5 34z" />
<glyph unicode="&#x137;" horiz-adv-x="1071" d="M719 0l-316 504v-504h-262v1495h262v-901l297 424h308l-351 -455l390 -563h-328zM550 -96q55 0 90 -37t35 -98q0 -39 -16 -77t-50 -73t-88.5 -64.5t-133.5 -50.5l-41 95q59 33 79.5 57.5t20.5 52.5q0 23 -8 42.5t-8 37.5q0 47 32.5 81t87.5 34z" />
<glyph unicode="&#x139;" horiz-adv-x="878" d="M143 0v1382h267v-1151h448v-231h-715zM254 1466l-43 144l426 153l59 -188z" />
<glyph unicode="&#x13a;" horiz-adv-x="544" d="M141 0v1495h262v-1495h-262zM178 1589l-43 144l426 153l59 -188z" />
<glyph unicode="&#x13b;" horiz-adv-x="878" d="M143 0v1382h267v-1151h448v-231h-715zM516 -96q55 0 90 -37t35 -98q0 -39 -16 -77t-50 -73t-88.5 -64.5t-133.5 -50.5l-41 95q59 33 79.5 57.5t20.5 52.5q0 23 -8 42.5t-8 37.5q0 47 32.5 81t87.5 34z" />
<glyph unicode="&#x13c;" horiz-adv-x="544" d="M141 0v1495h262v-1495h-262zM280 -96q55 0 90 -37t35 -98q0 -39 -16 -77t-50 -73t-88.5 -64.5t-133.5 -50.5l-41 95q59 33 79.5 57.5t20.5 52.5q0 23 -8 42.5t-8 37.5q0 47 32.5 81t87.5 34z" />
<glyph unicode="&#x13d;" horiz-adv-x="888" d="M143 0v1382h267v-1151h448v-231h-715zM662 1204l-152 82l213 375l189 -98z" />
<glyph unicode="&#x13e;" horiz-adv-x="653" d="M141 0v1495h262v-1495h-262zM645 1133l-170 36l103 420l209 -45z" />
<glyph unicode="&#x141;" horiz-adv-x="897" d="M162 0v645l-135 -63l-47 206l182 84v510h266v-385l201 93l49 -207l-250 -113v-539h449v-231h-715z" />
<glyph unicode="&#x142;" horiz-adv-x="614" d="M440 805v-805h-262v668l-104 -60l-51 195l155 86v606h262v-469l111 64l53 -195z" />
<glyph unicode="&#x143;" horiz-adv-x="1413" d="M1012 0h-23l-434 700q-94 156 -121.5 210.5t-54.5 117.5q4 -47 7 -108.5t6 -132t6 -169t3 -241.5v-377h-258v1382h258h56l405 -655q94 -154 116.5 -199t53.5 -114q-4 63 -9 168.5t-7 174t-3 134t-1 156.5v335h258v-1382h-258zM647 1466l-43 144l426 153l59 -188z" />
<glyph unicode="&#x144;" horiz-adv-x="1169" d="M766 0v651q0 84 -28.5 126t-98.5 42q-49 0 -92 -25.5t-75 -71.5t-50.5 -105.5t-18.5 -124.5v-492h-262v1018h248q0 -41 -4 -93.5t-10 -88.5h2q47 92 136 147t210 55q84 0 142.5 -24.5t94 -68.5t51 -102.5t15.5 -127.5v-715h-260zM596 1143l-119 125l307 295l144 -154z " />
<glyph unicode="&#x145;" horiz-adv-x="1413" d="M1012 0h-23l-434 700q-94 156 -121.5 210.5t-54.5 117.5q4 -47 7 -108.5t6 -132t6 -169t3 -241.5v-377h-258v1382h258h56l405 -655q94 -154 116.5 -199t53.5 -114q-4 63 -9 168.5t-7 174t-3 134t-1 156.5v335h258v-1382h-258zM712 -96q55 0 90 -37t35 -98q0 -39 -16 -77 t-50 -73t-88.5 -64.5t-133.5 -50.5l-41 95q59 33 79.5 57.5t20.5 52.5q0 23 -8 42.5t-8 37.5q0 47 32.5 81t87.5 34z" />
<glyph unicode="&#x146;" horiz-adv-x="1169" d="M766 0v651q0 84 -28.5 126t-98.5 42q-49 0 -92 -25.5t-75 -71.5t-50.5 -105.5t-18.5 -124.5v-492h-262v1018h248q0 -41 -4 -93.5t-10 -88.5h2q47 92 136 147t210 55q84 0 142.5 -24.5t94 -68.5t51 -102.5t15.5 -127.5v-715h-260zM594 -96q55 0 90 -37t35 -98 q0 -39 -16 -77t-50 -73t-88.5 -64.5t-133.5 -50.5l-41 95q59 33 79.5 57.5t20.5 52.5q0 23 -8 42.5t-8 37.5q0 47 32.5 81t87.5 34z" />
<glyph unicode="&#x147;" horiz-adv-x="1413" d="M1012 0h-23l-434 700q-94 156 -121.5 210.5t-54.5 117.5q4 -47 7 -108.5t6 -132t6 -169t3 -241.5v-377h-258v1382h258h56l405 -655q94 -154 116.5 -199t53.5 -114q-4 63 -9 168.5t-7 174t-3 134t-1 156.5v335h258v-1382h-258zM709 1464l-336 168l64 140l276 -113l281 113 l59 -132z" />
<glyph unicode="&#x148;" horiz-adv-x="1169" d="M766 0v651q0 84 -28.5 126t-98.5 42q-49 0 -92 -25.5t-75 -71.5t-50.5 -105.5t-18.5 -124.5v-492h-262v1018h248q0 -41 -4 -93.5t-10 -88.5h2q47 92 136 147t210 55q84 0 142.5 -24.5t94 -68.5t51 -102.5t15.5 -127.5v-715h-260zM575 1147l-311 274l103 123l213 -168 l215 168l98 -121z" />
<glyph unicode="&#x14c;" horiz-adv-x="1460" d="M1102 686q0 225 -94.5 352t-278.5 127q-82 0 -149.5 -30.5t-117.5 -90t-77 -147.5t-27 -199q0 -113 24 -201.5t70 -151t115.5 -95.5t161.5 -33q82 0 150.5 31t118 90t77 147t27.5 201zM1386 717q0 -174 -53 -313.5t-146 -234.5t-216 -143.5t-262 -48.5q-154 0 -274 46.5 t-199.5 135.5t-120.5 216t-41 291q0 174 53 313t146.5 234.5t216 143.5t262.5 48q154 0 273.5 -46t199.5 -135t120.5 -216t40.5 -291zM434 1518v165h600v-165h-600z" />
<glyph unicode="&#x14d;" horiz-adv-x="1132" d="M795 508q0 150 -59.5 229.5t-166.5 79.5q-53 0 -96 -19.5t-72.5 -58.5t-46 -96t-16.5 -133q0 -307 227 -307q104 0 167 76.5t63 228.5zM1065 532q0 -119 -35 -219t-101.5 -176t-163.5 -116.5t-218 -40.5q-111 0 -199 30.5t-150.5 93t-96 157.5t-33.5 224 q0 119 34.5 219.5t101 176t164 116.5t218.5 41q231 0 355 -129t124 -377zM303 1229v188h553v-188h-553z" />
<glyph unicode="&#x150;" horiz-adv-x="1460" d="M1102 686q0 225 -94.5 352t-278.5 127q-82 0 -149.5 -30.5t-117.5 -90t-77 -147.5t-27 -199q0 -113 24 -201.5t70 -151t115.5 -95.5t161.5 -33q82 0 150.5 31t118 90t77 147t27.5 201zM1386 717q0 -174 -53 -313.5t-146 -234.5t-216 -143.5t-262 -48.5q-154 0 -274 46.5 t-199.5 135.5t-120.5 216t-41 291q0 174 53 313t146.5 234.5t216 143.5t262.5 48q154 0 273.5 -46t199.5 -135t120.5 -216t40.5 -291zM559 1462l-121 105l260 305l150 -129zM952 1460l-117 109l297 289l140 -138z" />
<glyph unicode="&#x151;" horiz-adv-x="1132" d="M795 508q0 150 -59.5 229.5t-166.5 79.5q-53 0 -96 -19.5t-72.5 -58.5t-46 -96t-16.5 -133q0 -307 227 -307q104 0 167 76.5t63 228.5zM1065 532q0 -119 -35 -219t-101.5 -176t-163.5 -116.5t-218 -40.5q-111 0 -199 30.5t-150.5 93t-96 157.5t-33.5 224 q0 119 34.5 219.5t101 176t164 116.5t218.5 41q231 0 355 -129t124 -377zM410 1147l-123 104l264 318l152 -127zM797 1147l-115 104l293 301l142 -137z" />
<glyph unicode="&#x152;" horiz-adv-x="1783" d="M920 1141q-39 12 -90.5 18t-100.5 6q-82 0 -150.5 -30.5t-117.5 -90t-77 -147.5t-28 -199q0 -113 23.5 -201.5t71 -151t117 -95.5t161.5 -33q43 0 95.5 7t95.5 18v899zM950 0q-117 -23 -241 -23q-154 0 -274 46.5t-199.5 135.5t-120.5 216t-41 291q0 174 53 313 t146.5 234.5t216 143.5t262.5 48q57 0 118.5 -6t114.5 -17h684v-223h-483v-340h461v-217h-461v-373h483v-229h-719z" />
<glyph unicode="&#x153;" horiz-adv-x="1761" d="M795 508q0 150 -59.5 229.5t-166.5 79.5q-53 0 -96 -19.5t-72.5 -58.5t-46 -96t-16.5 -133q0 -307 227 -307q104 0 167 76.5t63 228.5zM1423 633q2 102 -45 157.5t-131 55.5q-82 0 -136 -57.5t-64 -155.5h376zM1681 606q0 -45 -2 -87t-4 -60h-631q-4 -276 269 -277 q76 0 152.5 13.5t154.5 40.5l29 -195q-86 -29 -181.5 -45t-183.5 -16q-141 0 -234.5 40.5t-146.5 120.5q-51 -74 -145 -117.5t-211 -43.5q-111 0 -199 30.5t-150.5 93t-96 157.5t-33.5 224q0 119 34.5 219.5t101 176t164 116.5t218.5 41q115 0 203 -36.5t145 -114.5 q47 70 132 110.5t196 40.5q109 0 188.5 -32.5t130.5 -91t75.5 -137.5t24.5 -171z" />
<glyph unicode="&#x154;" horiz-adv-x="1177" d="M780 967q0 207 -250 207q-35 0 -69.5 -2.5t-50.5 -4.5v-409q14 0 46.5 -1t65.5 -1q123 0 190.5 55.5t67.5 155.5zM831 0l-348 557h-73v-557h-267v1382q47 2 159 5.5t247 3.5q121 0 215 -24t160.5 -72t101.5 -123.5t35 -180.5q0 -80 -23.5 -145.5t-65.5 -113.5t-98.5 -81 t-123.5 -49q14 -18 45.5 -60t60.5 -89l299 -453h-324zM450 1466l-43 144l426 153l59 -188z" />
<glyph unicode="&#x155;" horiz-adv-x="727" d="M686 782q-283 55 -283 -366v-416h-262v1018h248q0 -41 -5 -97.5t-13 -107.5h4q20 51 48 94t67.5 75t92 47t115.5 9zM404 1143l-119 125l307 295l144 -154z" />
<glyph unicode="&#x156;" horiz-adv-x="1177" d="M780 967q0 207 -250 207q-35 0 -69.5 -2.5t-50.5 -4.5v-409q14 0 46.5 -1t65.5 -1q123 0 190.5 55.5t67.5 155.5zM831 0l-348 557h-73v-557h-267v1382q47 2 159 5.5t247 3.5q121 0 215 -24t160.5 -72t101.5 -123.5t35 -180.5q0 -80 -23.5 -145.5t-65.5 -113.5t-98.5 -81 t-123.5 -49q14 -18 45.5 -60t60.5 -89l299 -453h-324zM594 -96q55 0 90 -37t35 -98q0 -39 -16 -77t-50 -73t-88.5 -64.5t-133.5 -50.5l-41 95q59 33 79.5 57.5t20.5 52.5q0 23 -8 42.5t-8 37.5q0 47 32.5 81t87.5 34z" />
<glyph unicode="&#x157;" horiz-adv-x="727" d="M686 782q-283 55 -283 -366v-416h-262v1018h248q0 -41 -5 -97.5t-13 -107.5h4q20 51 48 94t67.5 75t92 47t115.5 9zM299 -96q55 0 90 -37t35 -98q0 -39 -16 -77t-50 -73t-88.5 -64.5t-133.5 -50.5l-41 95q59 33 79.5 57.5t20.5 52.5q0 23 -8 42.5t-8 37.5q0 47 32.5 81 t87.5 34z" />
<glyph unicode="&#x158;" horiz-adv-x="1177" d="M780 967q0 207 -250 207q-35 0 -69.5 -2.5t-50.5 -4.5v-409q14 0 46.5 -1t65.5 -1q123 0 190.5 55.5t67.5 155.5zM831 0l-348 557h-73v-557h-267v1382q47 2 159 5.5t247 3.5q121 0 215 -24t160.5 -72t101.5 -123.5t35 -180.5q0 -80 -23.5 -145.5t-65.5 -113.5t-98.5 -81 t-123.5 -49q14 -18 45.5 -60t60.5 -89l299 -453h-324zM543 1464l-336 168l64 140l276 -113l281 113l59 -132z" />
<glyph unicode="&#x159;" horiz-adv-x="727" d="M686 782q-283 55 -283 -366v-416h-262v1018h248q0 -41 -5 -97.5t-13 -107.5h4q20 51 48 94t67.5 75t92 47t115.5 9zM417 1147l-311 274l103 123l213 -168l215 168l98 -121z" />
<glyph unicode="&#x15a;" horiz-adv-x="1030" d="M956 408q0 -94 -34.5 -173t-103 -136.5t-169 -89.5t-227.5 -32q-170 0 -322 37l29 256q70 -29 150.5 -45t156.5 -16q51 0 94 10t75 30.5t49.5 53.5t17.5 78q0 61 -39 101t-118 76t-152.5 67.5t-136 77t-103.5 117t-41 177.5q0 90 35 165t102.5 129.5t164.5 84t220 29.5 q57 0 125 -7t125 -20l-25 -233q-57 18 -118.5 28.5t-122.5 10.5q-113 0 -170.5 -42t-57.5 -118q0 -57 40 -97t117 -75t154 -68.5t140 -79t104 -118t41 -178.5zM430 1466l-43 144l426 153l59 -188z" />
<glyph unicode="&#x15b;" horiz-adv-x="854" d="M774 311q0 -72 -27.5 -132t-84 -105t-139.5 -69.5t-191 -24.5q-61 0 -123 7t-111 19l15 217q47 -18 110.5 -29.5t120.5 -11.5q76 0 117 28t41 77q0 41 -28 66.5t-78 46t-107.5 43t-102.5 55t-73.5 88t-28.5 135.5q0 68 26.5 125t80 101t134.5 68.5t187 24.5q43 0 91 -5 t97 -13l-14 -207q-45 12 -92 20.5t-94 8.5q-72 0 -110 -26.5t-38 -72.5q0 -39 28 -64.5t79 -46t109.5 -45t103.5 -58t73.5 -87t28.5 -133.5zM381 1143l-119 125l307 295l144 -154z" />
<glyph unicode="&#x15e;" horiz-adv-x="1030" d="M956 408q0 -94 -34.5 -173t-103 -136.5t-169 -89.5t-227.5 -32q-170 0 -322 37l29 256q70 -29 150.5 -45t156.5 -16q51 0 94 10t75 30.5t49.5 53.5t17.5 78q0 61 -39 101t-118 76t-152.5 67.5t-136 77t-103.5 117t-41 177.5q0 90 35 165t102.5 129.5t164.5 84t220 29.5 q57 0 125 -7t125 -20l-25 -233q-57 18 -118.5 28.5t-122.5 10.5q-113 0 -170.5 -42t-57.5 -118q0 -57 40 -97t117 -75t154 -68.5t140 -79t104 -118t41 -178.5zM586 -82q76 -104 62.5 -204.5t-103.5 -192.5h-199q78 92 86 166.5t-63 162.5z" />
<glyph unicode="&#x15f;" horiz-adv-x="854" d="M774 311q0 -72 -27.5 -132t-84 -105t-139.5 -69.5t-191 -24.5q-61 0 -123 7t-111 19l15 217q47 -18 110.5 -29.5t120.5 -11.5q76 0 117 28t41 77q0 41 -28 66.5t-78 46t-107.5 43t-102.5 55t-73.5 88t-28.5 135.5q0 68 26.5 125t80 101t134.5 68.5t187 24.5q43 0 91 -5 t97 -13l-14 -207q-45 12 -92 20.5t-94 8.5q-72 0 -110 -26.5t-38 -72.5q0 -39 28 -64.5t79 -46t109.5 -45t103.5 -58t73.5 -87t28.5 -133.5zM512 -82q76 -104 62.5 -204.5t-103.5 -192.5h-199q78 92 86 166.5t-63 162.5z" />
<glyph unicode="&#x160;" horiz-adv-x="1030" d="M956 408q0 -94 -34.5 -173t-103 -136.5t-169 -89.5t-227.5 -32q-170 0 -322 37l29 256q70 -29 150.5 -45t156.5 -16q51 0 94 10t75 30.5t49.5 53.5t17.5 78q0 61 -39 101t-118 76t-152.5 67.5t-136 77t-103.5 117t-41 177.5q0 90 35 165t102.5 129.5t164.5 84t220 29.5 q57 0 125 -7t125 -20l-25 -233q-57 18 -118.5 28.5t-122.5 10.5q-113 0 -170.5 -42t-57.5 -118q0 -57 40 -97t117 -75t154 -68.5t140 -79t104 -118t41 -178.5zM516 1464l-336 168l64 140l276 -113l281 113l59 -132z" />
<glyph unicode="&#x161;" horiz-adv-x="854" d="M774 311q0 -72 -27.5 -132t-84 -105t-139.5 -69.5t-191 -24.5q-61 0 -123 7t-111 19l15 217q47 -18 110.5 -29.5t120.5 -11.5q76 0 117 28t41 77q0 41 -28 66.5t-78 46t-107.5 43t-102.5 55t-73.5 88t-28.5 135.5q0 68 26.5 125t80 101t134.5 68.5t187 24.5q43 0 91 -5 t97 -13l-14 -207q-45 12 -92 20.5t-94 8.5q-72 0 -110 -26.5t-38 -72.5q0 -39 28 -64.5t79 -46t109.5 -45t103.5 -58t73.5 -87t28.5 -133.5zM430 1147l-311 274l103 123l213 -168l215 168l98 -121z" />
<glyph unicode="&#x162;" horiz-adv-x="1044" d="M655 1155v-1155h-266v1155h-358v227h983v-227h-359zM615 -82q76 -104 62.5 -204.5t-103.5 -192.5h-199q78 92 86 166.5t-63 162.5z" />
<glyph unicode="&#x163;" horiz-adv-x="768" d="M707 8q-51 -12 -110.5 -20t-107.5 -8q-86 0 -143 17t-91 54t-49.5 98.5t-15.5 155.5v510h-174v203h174v313l263 70v-383h243v-203h-243v-461q0 -90 24.5 -122.5t89.5 -32.5q59 0 121 14zM529 -82q76 -104 62.5 -204.5t-103.5 -192.5h-199q78 92 86 166.5t-63 162.5z" />
<glyph unicode="&#x164;" horiz-adv-x="1044" d="M655 1155v-1155h-266v1155h-358v227h983v-227h-359zM516 1464l-336 168l64 140l276 -113l281 113l59 -132z" />
<glyph unicode="&#x165;" horiz-adv-x="776" d="M707 8q-51 -12 -110.5 -20t-107.5 -8q-86 0 -143 17t-91 54t-49.5 98.5t-15.5 155.5v510h-174v203h174v313l263 70v-383h243v-203h-243v-461q0 -90 24.5 -122.5t89.5 -32.5q59 0 121 14zM702 1133l-170 36l103 420l209 -45z" />
<glyph unicode="&#x16a;" horiz-adv-x="1394" d="M1251 537q0 -281 -147.5 -420.5t-425.5 -139.5q-158 0 -263.5 40t-165 109t-83 157t-23.5 196v903h267v-886q0 -70 13 -123.5t45 -92t88 -60t140 -21.5q156 0 223.5 73.5t67.5 247.5v862h264v-845zM399 1518v165h600v-165h-600z" />
<glyph unicode="&#x16b;" horiz-adv-x="1167" d="M780 0q0 47 3 97t10 85h-2q-49 -94 -137.5 -148t-209.5 -54q-84 0 -142 24.5t-94 68.5t-51.5 102t-15.5 128v715h260v-651q0 -84 29 -126t98 -42q49 0 92.5 25.5t76 71.5t50 105.5t17.5 124.5v492h262v-1018h-246zM307 1229v188h553v-188h-553z" />
<glyph unicode="&#x16e;" horiz-adv-x="1394" d="M1251 537q0 -281 -147.5 -420.5t-425.5 -139.5q-158 0 -263.5 40t-165 109t-83 157t-23.5 196v903h267v-886q0 -70 13 -123.5t45 -92t88 -60t140 -21.5q156 0 223.5 73.5t67.5 247.5v862h264v-845zM971 1669q0 -111 -79 -178.5t-204 -67.5q-127 0 -195.5 57.5 t-68.5 169.5q0 111 80 178.5t205 67.5t193.5 -57t68.5 -170zM795 1659q0 109 -96 108q-43 0 -70 -27.5t-27 -78.5q0 -109 95 -109q43 0 70.5 28t27.5 79z" />
<glyph unicode="&#x16f;" horiz-adv-x="1167" d="M780 0q0 47 3 97t10 85h-2q-49 -94 -137.5 -148t-209.5 -54q-84 0 -142 24.5t-94 68.5t-51.5 102t-15.5 128v715h260v-651q0 -84 29 -126t98 -42q49 0 92.5 25.5t76 71.5t50 105.5t17.5 124.5v492h262v-1018h-246zM850 1368q0 -115 -78 -186.5t-201 -71.5 q-125 0 -191.5 59.5t-66.5 178.5q0 55 20.5 102t58.5 82t89 53.5t113 18.5q125 0 190.5 -59.5t65.5 -176.5zM678 1356q0 59 -23.5 85.5t-71.5 26.5q-43 0 -70.5 -28.5t-27.5 -81.5q0 -113 96 -113q43 0 70 29t27 82z" />
<glyph unicode="&#x170;" horiz-adv-x="1394" d="M1251 537q0 -281 -147.5 -420.5t-425.5 -139.5q-158 0 -263.5 40t-165 109t-83 157t-23.5 196v903h267v-886q0 -70 13 -123.5t45 -92t88 -60t140 -21.5q156 0 223.5 73.5t67.5 247.5v862h264v-845zM502 1462l-121 105l260 305l150 -129zM895 1460l-117 109l297 289 l140 -138z" />
<glyph unicode="&#x171;" horiz-adv-x="1167" d="M780 0q0 47 3 97t10 85h-2q-49 -94 -137.5 -148t-209.5 -54q-84 0 -142 24.5t-94 68.5t-51.5 102t-15.5 128v715h260v-651q0 -84 29 -126t98 -42q49 0 92.5 25.5t76 71.5t50 105.5t17.5 124.5v492h262v-1018h-246zM410 1147l-123 104l264 318l152 -127zM797 1147 l-115 104l293 301l142 -137z" />
<glyph unicode="&#x172;" horiz-adv-x="1394" d="M1251 537q0 -274 -145 -420q-47 -47 -109.5 -88t-119.5 -99q-78 -78 -78 -153q0 -68 73 -68q61 0 134 49l71 -141q-59 -53 -126.5 -77.5t-139.5 -24.5q-117 0 -186.5 54t-69.5 155q0 70 37 137t108 121q-10 -2 -21 -2h-22q-154 0 -253 39.5t-157.5 108.5t-81 160 t-22.5 191v903h267v-886q0 -66 12 -120t45 -94t88 -61.5t141 -21.5q154 0 222.5 72.5t68.5 248.5v862h264v-845z" />
<glyph unicode="&#x173;" horiz-adv-x="1167" d="M1149 -383q-57 -51 -125 -76.5t-141 -25.5q-119 0 -187.5 55t-68.5 154q0 82 44 154.5t130 141.5q-4 37 -7 79t-1 75h-2q-53 -90 -139.5 -142t-207.5 -52q-84 0 -142 24.5t-94 68.5t-51.5 102t-15.5 128v715h260v-651q0 -84 29 -126t98 -42q49 0 92.5 25.5t76 71.5 t50 105.5t17.5 124.5v492h262v-682q0 -96 5 -180t18 -156q-96 -57 -137.5 -113.5t-41.5 -109.5q0 -33 19.5 -50.5t54.5 -17.5q33 0 65.5 12.5t67.5 36.5z" />
<glyph unicode="&#x178;" horiz-adv-x="1148" d="M707 510v-510h-267v508l-444 874h293l192 -389q29 -59 51.5 -112.5t42.5 -106.5h5q20 51 45.5 108.5t60.5 129.5l184 370h283zM942 1614q0 -59 -41 -100t-100 -41t-100.5 40.5t-41.5 100.5q0 59 41 100t101 41q59 0 100 -41t41 -100zM500 1614q0 -59 -41 -100t-101 -41 q-59 0 -100 40.5t-41 100.5q0 59 41 100t100 41t100.5 -41t41.5 -100z" />
<glyph unicode="&#x179;" horiz-adv-x="1099" d="M92 0v205l498 811q31 47 49 74.5t41 56.5q-45 -2 -102.5 -3t-149.5 -1h-319v239h892v-215l-526 -829q-27 -41 -37 -58.5t-26 -37.5q16 2 53 3t89 1h157h299v-246h-918zM452 1466l-43 144l426 153l59 -188z" />
<glyph unicode="&#x17a;" horiz-adv-x="921" d="M92 0v186l410 600q-33 -2 -90.5 -3t-126.5 -1h-181v236h713v-187l-401 -593q29 2 88 2h143h178v-240h-733zM445 1143l-119 125l307 295l144 -154z" />
<glyph unicode="&#x17b;" horiz-adv-x="1099" d="M92 0v205l498 811q31 47 49 74.5t41 56.5q-45 -2 -102.5 -3t-149.5 -1h-319v239h892v-215l-526 -829q-27 -41 -37 -58.5t-26 -37.5q16 2 53 3t89 1h157h299v-246h-918zM708 1626q0 -66 -46 -112t-109 -46q-66 0 -112 46.5t-46 111.5q0 63 46 109.5t112 46.5t110.5 -45 t44.5 -111z" />
<glyph unicode="&#x17c;" horiz-adv-x="921" d="M92 0v186l410 600q-33 -2 -90.5 -3t-126.5 -1h-181v236h713v-187l-401 -593q29 2 88 2h143h178v-240h-733zM614 1325q0 -66 -45 -111t-110 -45q-66 0 -112 45.5t-46 110.5q0 66 46 112t112 46t110.5 -46t44.5 -112z" />
<glyph unicode="&#x17d;" horiz-adv-x="1099" d="M92 0v205l498 811q31 47 49 74.5t41 56.5q-45 -2 -102.5 -3t-149.5 -1h-319v239h892v-215l-526 -829q-27 -41 -37 -58.5t-26 -37.5q16 2 53 3t89 1h157h299v-246h-918zM551 1464l-336 168l64 140l276 -113l281 113l59 -132z" />
<glyph unicode="&#x17e;" horiz-adv-x="921" d="M92 0v186l410 600q-33 -2 -90.5 -3t-126.5 -1h-181v236h713v-187l-401 -593q29 2 88 2h143h178v-240h-733zM458 1147l-311 274l103 123l213 -168l215 168l98 -121z" />
<glyph unicode="&#x192;" horiz-adv-x="929" d="M473 215q-16 -154 -50 -259.5t-88 -170t-133 -94t-188 -29.5q-37 0 -76.5 5t-74.5 14l39 227q33 -12 65.5 -19.5t65.5 -7.5q43 0 71.5 13.5t48 44t33 84t21.5 135.5l49 506h-227v200h245l23 203q23 227 128 338t306 111q35 0 75 -3.5t73 -11.5l-29 -215q-27 8 -61.5 12.5 t-65.5 4.5q-74 0 -114 -50.5t-52 -167.5l-20 -221h294v-200h-313z" />
<glyph unicode="&#x218;" horiz-adv-x="1030" d="M956 408q0 -94 -34.5 -173t-103 -136.5t-169 -89.5t-227.5 -32q-170 0 -322 37l29 256q70 -29 150.5 -45t156.5 -16q51 0 94 10t75 30.5t49.5 53.5t17.5 78q0 61 -39 101t-118 76t-152.5 67.5t-136 77t-103.5 117t-41 177.5q0 90 35 165t102.5 129.5t164.5 84t220 29.5 q57 0 125 -7t125 -20l-25 -233q-57 18 -118.5 28.5t-122.5 10.5q-113 0 -170.5 -42t-57.5 -118q0 -57 40 -97t117 -75t154 -68.5t140 -79t104 -118t41 -178.5zM516 -96q55 0 90 -37t35 -98q0 -39 -16 -77t-50 -73t-88.5 -64.5t-133.5 -50.5l-41 95q59 33 79.5 57.5 t20.5 52.5q0 23 -8 42.5t-8 37.5q0 47 32.5 81t87.5 34z" />
<glyph unicode="&#x219;" horiz-adv-x="854" d="M774 311q0 -72 -27.5 -132t-84 -105t-139.5 -69.5t-191 -24.5q-61 0 -123 7t-111 19l15 217q47 -18 110.5 -29.5t120.5 -11.5q76 0 117 28t41 77q0 41 -28 66.5t-78 46t-107.5 43t-102.5 55t-73.5 88t-28.5 135.5q0 68 26.5 125t80 101t134.5 68.5t187 24.5q43 0 91 -5 t97 -13l-14 -207q-45 12 -92 20.5t-94 8.5q-72 0 -110 -26.5t-38 -72.5q0 -39 28 -64.5t79 -46t109.5 -45t103.5 -58t73.5 -87t28.5 -133.5zM442 -96q55 0 90 -37t35 -98q0 -39 -16 -77t-50 -73t-88.5 -64.5t-133.5 -50.5l-41 95q59 33 79.5 57.5t20.5 52.5q0 23 -8 42.5 t-8 37.5q0 47 32.5 81t87.5 34z" />
<glyph unicode="&#x21a;" horiz-adv-x="1044" d="M655 1155v-1155h-266v1155h-358v227h983v-227h-359zM534 -96q55 0 90 -37t35 -98q0 -39 -16 -77t-50 -73t-88.5 -64.5t-133.5 -50.5l-41 95q59 33 79.5 57.5t20.5 52.5q0 23 -8 42.5t-8 37.5q0 47 32.5 81t87.5 34z" />
<glyph unicode="&#x21b;" horiz-adv-x="768" d="M707 8q-51 -12 -110.5 -20t-107.5 -8q-86 0 -143 17t-91 54t-49.5 98.5t-15.5 155.5v510h-174v203h174v313l263 70v-383h243v-203h-243v-461q0 -90 24.5 -122.5t89.5 -32.5q59 0 121 14zM456 -96q55 0 90 -37t35 -98q0 -39 -16 -77t-50 -73t-88.5 -64.5t-133.5 -50.5 l-41 95q59 33 79.5 57.5t20.5 52.5q0 23 -8 42.5t-8 37.5q0 47 32.5 81t87.5 34z" />
<glyph unicode="&#x2c6;" horiz-adv-x="894" d="M659 1147l-210 166l-216 -166l-100 119l318 278l311 -276z" />
<glyph unicode="&#x2c7;" horiz-adv-x="894" d="M444 1147l-311 274l103 123l213 -168l215 168l98 -121z" />
<glyph unicode="&#x2d8;" horiz-adv-x="827" d="M694 1475q0 -63 -17.5 -120t-52 -101t-89 -68.5t-125.5 -24.5q-72 0 -125.5 25.5t-87 68.5t-49 99.5t-15.5 120.5h170q0 -55 28.5 -90t80.5 -35q51 0 80.5 31.5t29.5 93.5h172z" />
<glyph unicode="&#x2d9;" horiz-adv-x="579" d="M446 1325q0 -66 -45 -111t-110 -45q-66 0 -112 45.5t-46 110.5q0 66 46 112t112 46t110.5 -46t44.5 -112z" />
<glyph unicode="&#x2da;" horiz-adv-x="804" d="M670 1368q0 -115 -78 -186.5t-201 -71.5q-125 0 -191.5 59.5t-66.5 178.5q0 55 20.5 102t58.5 82t89 53.5t113 18.5q125 0 190.5 -59.5t65.5 -176.5zM498 1356q0 59 -23.5 85.5t-71.5 26.5q-43 0 -70.5 -28.5t-27.5 -81.5q0 -113 96 -113q43 0 70 29t27 82z" />
<glyph unicode="&#x2db;" horiz-adv-x="790" d="M555 0q-94 -57 -135 -113.5t-41 -109.5q0 -33 18.5 -50.5t53.5 -17.5q33 0 65.5 12.5t67.5 36.5l73 -141q-57 -51 -124.5 -76.5t-143.5 -25.5q-119 0 -187.5 55t-68.5 154q0 80 43 152.5t129 141.5z" />
<glyph unicode="&#x2dc;" horiz-adv-x="1005" d="M872 1364q-92 -182 -247 -182q-47 0 -81 14t-73 42t-56.5 38t-43.5 10q-61 0 -113 -92l-125 96q92 182 250 183q45 0 79 -14.5t73.5 -42t57 -38t42.5 -10.5q61 0 113 92z" />
<glyph unicode="&#x2dd;" horiz-adv-x="1095" d="M256 1147l-123 104l264 318l152 -127zM643 1147l-115 104l293 301l142 -137z" />
<glyph unicode="&#x312;" horiz-adv-x="0" d="M-590 1149q-59 0 -94 48t-26.5 116.5t78 134t206.5 100.5l43 -94q-80 -41 -95.5 -76t1.5 -73q20 -59 -12.5 -107.5t-100.5 -48.5z" />
<glyph unicode="&#x315;" horiz-adv-x="129" d="M94 1133l-170 36l103 420l209 -45z" />
<glyph unicode="&#x326;" horiz-adv-x="0" d="M-580 -96q55 0 90 -37t35 -98q0 -39 -16 -77t-50 -73t-88.5 -64.5t-133.5 -50.5l-41 95q59 33 79.5 57.5t20.5 52.5q0 23 -8 42.5t-8 37.5q0 47 32.5 81t87.5 34z" />
<glyph unicode="&#x394;" horiz-adv-x="1257" d="M55 0v201l406 1181h325l418 -1181v-201h-1149zM670 922q-16 51 -29.5 101t-24.5 107h-4q-10 -51 -23.5 -104t-31.5 -111l-227 -675h571z" />
<glyph unicode="&#x3a9;" horiz-adv-x="1460" d="M846 0v211q121 92 180 211t59 293q0 102 -21.5 185t-66.5 143.5t-112.5 92t-157.5 31.5q-76 0 -140.5 -30.5t-112.5 -89t-74.5 -141.5t-26.5 -185q0 -92 13 -164t41 -131t74 -111.5t113 -103.5v-211h-538v215h252q-113 78 -176.5 205t-63.5 303q0 152 48 277.5t138.5 217 t212 139.5t265.5 48q131 0 243.5 -39t196.5 -120t130 -204.5t46 -289.5q0 -178 -66.5 -315.5t-179.5 -221.5h262v-215h-538z" />
<glyph unicode="&#x3bc;" horiz-adv-x="1191" d="M1139 -8q-57 -10 -105 -10q-66 0 -109.5 14t-70.5 40.5t-38 61.5t-13 80h-2q-39 -90 -113 -141t-178 -51q-88 0 -131 47l31 -527h-269v1512h262v-660q0 -160 125 -159q51 0 95.5 23.5t76 68.5t49 105.5t17.5 133.5v488h260v-651q0 -53 5 -86t17.5 -50.5t34 -24.5t56.5 -7 v-207z" />
<glyph unicode="&#x3c0;" horiz-adv-x="1290" d="M1014 803q0 -326 30 -471q12 -74 36 -103.5t61 -29.5q12 0 26.5 2t36.5 6l25 -209q-61 -16 -148 -16q-135 0 -201.5 60t-95.5 214q-16 88 -25 230.5t-9 316.5h-261q2 -217 -24.5 -427t-89.5 -403l-279 54q74 209 109 395t33 381h-213v215h1204v-215h-215z" />
<glyph unicode="&#x1e9e;" horiz-adv-x="1419" d="M952 805q188 -18 289.5 -118.5t101.5 -266.5q0 -88 -32.5 -168t-98 -141.5t-162 -97.5t-221.5 -36q-55 0 -121.5 7.5t-127.5 21.5l18 240q53 -18 113.5 -29.5t122.5 -11.5q104 0 164.5 51t60.5 137q0 90 -69.5 145.5t-233.5 55.5h-109v182l301 387q-51 8 -108.5 12.5 t-114.5 4.5q-166 0 -240.5 -77t-74.5 -231v-872h-267v864q0 543 598 543q117 0 250 -12.5t256 -34.5v-184z" />
<glyph unicode="&#x2013;" d="M0 496v229h1126v-229h-1126z" />
<glyph unicode="&#x2014;" horiz-adv-x="2048" d="M227 496v229h1594v-229h-1594z" />
<glyph unicode="&#x2018;" horiz-adv-x="546" d="M471 1452q-104 -113 -117.5 -185.5t33.5 -129.5q29 -35 34 -77t-11.5 -81t-53.5 -64.5t-90 -25.5q-72 0 -120 56t-47 148.5t61.5 211t204.5 243.5l106 -96v0z" />
<glyph unicode="&#x2019;" horiz-adv-x="546" d="M279 1530q72 0 118.5 -56.5t46.5 -148.5t-60 -211t-204 -244l-106 97q104 113 117.5 185.5t-35.5 129.5q-29 33 -33 76t12.5 82t53.5 64.5t90 25.5z" />
<glyph unicode="&#x201a;" horiz-adv-x="546" d="M279 305q72 0 118.5 -56t46.5 -149q0 -92 -60 -210.5t-204 -243.5l-106 96q104 113 117.5 184.5t-35.5 128.5q-29 35 -33 78t12.5 82t53.5 64.5t90 25.5z" />
<glyph unicode="&#x201c;" horiz-adv-x="993" d="M471 1452q-104 -113 -117.5 -185.5t33.5 -129.5q29 -35 34 -77t-11.5 -81t-53.5 -64.5t-90 -25.5q-72 0 -120 56t-47 148.5t61.5 211t204.5 243.5l106 -96v0zM920 1452q-104 -113 -118 -185.5t34 -129.5q29 -35 32.5 -77t-12.5 -81t-52 -64.5t-89 -25.5q-74 0 -121 56 t-47 149q0 92 60.5 210.5t203.5 243.5l109 -96v0z" />
<glyph unicode="&#x201d;" horiz-adv-x="993" d="M279 1530q72 0 118.5 -56.5t46.5 -148.5t-60 -211t-204 -244l-106 97q104 113 117.5 185.5t-35.5 129.5q-29 33 -33 76t12.5 82t53.5 64.5t90 25.5zM725 1530q74 0 121 -56.5t47 -148.5t-60.5 -211t-203.5 -244l-109 97q104 113 117.5 185.5t-33.5 129.5q-29 33 -33 76 t12.5 82t52.5 64.5t89 25.5z" />
<glyph unicode="&#x201e;" horiz-adv-x="993" d="M279 305q72 0 118.5 -56t46.5 -149q0 -92 -60 -210.5t-204 -243.5l-106 96q104 113 117.5 184.5t-35.5 128.5q-29 35 -33 78t12.5 82t53.5 64.5t90 25.5zM725 305q74 0 121 -56t47 -149q0 -92 -60.5 -210.5t-203.5 -243.5l-109 96q104 113 117.5 184.5t-33.5 128.5 q-29 35 -33 78t12.5 82t52.5 64.5t89 25.5z" />
<glyph unicode="&#x2020;" horiz-adv-x="935" d="M575 1092l43 -181l-47 -522h-204l-50 522l43 181h-274v202h274l-43 279h301l-43 -279h277v-202h-277z" />
<glyph unicode="&#x2021;" horiz-adv-x="935" d="M578 588l43 -250h-306l43 250h-272v200h272l-41 166l41 168h-272v201h272l-41 250h301l-40 -250h274v-201h-274l40 -168l-40 -166h274v-200h-274z" />
<glyph unicode="&#x2022;" horiz-adv-x="866" d="M737 608q0 -61 -23.5 -116.5t-65.5 -97.5t-98 -65.5t-118 -23.5q-61 0 -116.5 23.5t-97.5 65.5t-65.5 97.5t-23.5 116.5t23.5 116.5t65.5 97.5t97.5 65.5t116.5 23.5t117.5 -23.5t98.5 -65.5t65.5 -97.5t23.5 -116.5z" />
<glyph unicode="&#x2026;" horiz-adv-x="1480" d="M418 137q0 -66 -48 -113t-114 -47t-113 47.5t-47 112.5q0 66 47 113t113 47t114 -47t48 -113zM895 137q0 -66 -47 -113t-113 -47t-113 47.5t-47 112.5q0 66 47.5 113t112.5 47q66 0 113 -47t47 -113zM1372 137q0 -66 -47 -113t-113 -47t-112.5 47.5t-46.5 112.5 q0 66 47 113t112 47q66 0 113 -47t47 -113z" />
<glyph unicode="&#x2030;" horiz-adv-x="2154" d="M674 1098q0 -80 -24.5 -142.5t-66.5 -105.5t-97.5 -65.5t-116.5 -22.5q-131 0 -209 79t-78 232q0 78 24.5 139.5t66.5 104.5t97.5 65.5t116.5 22.5t113.5 -17.5t90.5 -54.5t60.5 -95t22.5 -140zM485 1085q0 86 -25.5 121t-78.5 35q-47 0 -78 -41t-31 -117 q0 -86 28 -121.5t77 -35.5q47 0 77.5 40.5t30.5 118.5zM279 -41l-156 121l1063 1341l155 -121zM1386 313q0 -80 -24.5 -142t-66.5 -105t-97 -66t-117 -23q-131 0 -208.5 79t-77.5 233q0 78 24.5 139t66.5 104t96 66t116 23q61 0 114.5 -17.5t91 -54.5t60 -95.5t22.5 -140.5z M1196 301q0 86 -25.5 121t-76.5 35q-47 0 -78 -41t-31 -117q0 -88 27.5 -123t77.5 -35q47 0 76.5 41t29.5 119zM2058 313q0 -80 -24.5 -142t-66.5 -105t-97 -66t-117 -23q-131 0 -209 79t-78 233q0 78 25 139t66.5 104t96 66t115.5 23t113.5 -17.5t91.5 -54.5t61.5 -95.5 t22.5 -140.5zM1868 301q0 86 -25.5 121t-77.5 35q-47 0 -77.5 -41t-30.5 -117q0 -88 27.5 -123t76.5 -35q47 0 77 41t30 119z" />
<glyph unicode="&#x2039;" horiz-adv-x="638" d="M315 205l-231 393l235 399l199 -96l-182 -301l186 -297z" />
<glyph unicode="&#x203a;" horiz-adv-x="638" d="M319 205l-198 96l184 301l-186 297l207 98l231 -393z" />
<glyph unicode="&#x2044;" horiz-adv-x="411" d="M-362 -307l-162 110l1335 1854l160 -113z" />
<glyph unicode="&#x2074;" horiz-adv-x="849" d="M676 918v-185h-221v185h-404l-14 161l301 535h338v-512h129v-184h-129zM453 1470l-205 -372q18 0 46 1t57.5 1h53h48.5v370z" />
<glyph unicode="&#x20ac;" horiz-adv-x="1212" d="M1157 82q-74 -47 -171 -76t-216 -29q-514 0 -586 474h-159v157h147v39q0 35 1 61.5t3 55.5h-151v158h170q51 244 210.5 363.5t395.5 119.5q98 0 188 -21.5t150 -52.5l-62 -211q-51 29 -124.5 48.5t-153.5 19.5q-123 0 -204 -65.5t-110 -200.5h398v-158h-422 q-2 -41 -2 -54.5v-25.5v-34.5t2 -41.5h422v-157h-402q23 -123 100.5 -189.5t225.5 -66.5q63 0 140 22.5t140 63.5z" />
<glyph unicode="&#x2122;" horiz-adv-x="1411" d="M385 1225v-418h-186v418h-140v157h459v-157h-133zM1145 807l-37 248l-10 96l-19 -88l-67 -256h-174l-68 262l-16 82l-4 -74l-39 -270h-176l92 575h223l70 -252l16 -83l14 79l70 256h223l96 -575h-194z" />
<glyph unicode="&#x2202;" horiz-adv-x="1298" d="M848 487q0 92 -55.5 152.5t-167.5 60.5q-106 0 -173 -73.5t-67 -186.5t56.5 -171t154.5 -58q53 0 99 20.5t80 57.5t53.5 88t19.5 110zM1171 817q0 -190 -49 -362t-161 -295q-72 -80 -177.5 -127t-224.5 -47q-106 0 -187 30.5t-135.5 88t-82 136t-27.5 177.5q0 109 36 201 t102.5 159.5t160.5 105.5t209 38q92 0 159.5 -36t106.5 -95q-4 45 -7 75.5t-7 59.5q-12 90 -48 158.5t-90.5 114.5t-125 68.5t-152.5 22.5l37 219q150 -2 272.5 -50t209.5 -137t134 -217t47 -288z" />
<glyph unicode="&#x220f;" horiz-adv-x="1605" d="M1323 1274v-1768h-244v1768h-549v-1768h-247v1768h-199v221h1438v-221h-199z" />
<glyph unicode="&#x2211;" horiz-adv-x="1243" d="M74 -494v203l596 811l-559 770v205h1001v-221h-680l541 -746l-590 -792h760v-230h-1069z" />
<glyph unicode="&#x2212;" d="M80 496v227h967v-227h-967z" />
<glyph unicode="&#x221a;" horiz-adv-x="1261" d="M911 483l-147 -483h-303l-96 289l-181 532h-178v197h393l62 -197l102 -332q16 -47 30.5 -97t24.5 -101h3q10 53 21 99t22 89l288 1073h287z" />
<glyph unicode="&#x221e;" horiz-adv-x="2015" d="M803 606q-96 72 -169 114t-134 42q-78 0 -118 -45t-40 -105q0 -66 42 -107.5t118 -41.5q63 0 138 38.5t163 104.5zM1675 614q0 63 -42 105.5t-117 42.5q-66 0 -143 -41t-163 -105q98 -72 171 -112.5t135 -40.5q78 0 118.5 45t40.5 106zM1925 623q0 -80 -27.5 -150 t-81 -123t-132 -83.5t-181.5 -30.5q-117 0 -239.5 57t-264.5 162q-55 -41 -116.5 -81t-126 -71t-132 -49t-139.5 -18q-98 0 -172.5 28.5t-124 78.5t-74 116.5t-24.5 142.5q0 84 30 154.5t84 123t130 81t168 28.5q125 0 250 -59.5t262 -163.5q53 39 113.5 79t126 72.5t133 52 t137.5 19.5q96 0 170.5 -27.5t126 -76.5t78 -116.5t26.5 -145.5z" />
<glyph unicode="&#x222b;" horiz-adv-x="706" d="M647 1767q-18 6 -42.5 10.5t-49.5 4.5q-33 0 -55.5 -11.5t-38 -39t-22.5 -80t-7 -133.5q0 -76 3 -194t6 -238.5t10.5 -335.5t11.5 -356.5t7 -273.5t3 -226q0 -291 -83 -419t-259 -128q-29 0 -59.5 3t-55.5 9v225q18 -6 43 -9t45 -3q35 0 58.5 11t38 40t21.5 81t7 136 q0 74 -3 189.5t-6 230.5t-9 333t-10 361.5t-7.5 276.5t-3.5 229q0 147 24 252t68 170.5t109.5 95t149.5 29.5q23 0 52.5 -4t53.5 -10v-226z" />
<glyph unicode="&#x2248;" d="M1051 356q-57 -51 -135 -87t-154 -36q-72 0 -122 18.5t-93 41t-86 41t-96 18.5q-57 0 -107.5 -26.5t-93.5 -61.5l-86 176q49 47 121.5 89t158.5 42q70 0 120 -18t95 -42t90.5 -42t106.5 -18q104 0 197 79l84 -174v0zM1049 768q-55 -55 -127 -93t-160 -38q-66 0 -114 18.5 t-91 41t-88 41t-104 18.5q-57 0 -109.5 -25.5t-95.5 -60.5l-82 174q57 53 134 92t161 39q68 0 120 -18.5t97 -42t87 -42t89 -18.5q53 0 102.5 24.5t92.5 65.5l88 -176v0z" />
<glyph unicode="&#x2260;" d="M561 307l-98 -248h-234l99 248h-219v211h301l71 180h-372v211h454l99 248h235l-98 -248h219v-211h-303l-72 -180h375v-211h-457z" />
<glyph unicode="&#x2264;" d="M145 0v219h836v-219h-836zM795 297l-682 526l680 527l165 -179l-495 -346l495 -346z" />
<glyph unicode="&#x2265;" d="M145 0v219h836v-219h-836zM334 297l-166 178l496 346l-496 346l164 183l682 -527z" />
<glyph unicode="&#x25ca;" horiz-adv-x="1282" d="M631 1116l-297 -416l315 -436l301 414zM727 -18h-164l-518 712l514 707h160l518 -713z" />
<glyph unicode="&#x25fc;" horiz-adv-x="1013" d="M0 1014h1014v-1014h-1014v1014z" />
<glyph unicode="&#xeeee;" horiz-adv-x="358" d="M358 2007v-2662h-358v2662h358z" />
<glyph unicode="&#xf000;" d="M922 205v717h-717v-717h717zM512 717v102h307v-512h-102v205h-205v102h205v103h-205zM102 102v922h922v-922h-922zM307 307v512h103v-409h204v-103h-307z" />
<glyph unicode="&#xf001;" horiz-adv-x="1218" d="M817 0v815h-362v-815h-260v815h-179v203h179v33q0 221 124.5 341.5t387.5 120.5q80 0 160.5 -10t158.5 -26l-47 -220q-72 18 -145.5 29.5t-141.5 11.5q-121 0 -179 -58t-58 -169v-53h622v-1018h-260z" />
<glyph unicode="&#xf002;" horiz-adv-x="1218" d="M817 0v1288q-78 12 -155 12q-106 0 -156.5 -50t-50.5 -158v-74h223v-203h-223v-815h-260v815h-179v203h179v65q0 100 26.5 179t85 134.5t153.5 85t228 29.5q115 0 226.5 -11t162.5 -19v-1481h-260z" />
<glyph unicode="&#xf6c9;" horiz-adv-x="751" d="M176 1466l-43 144l426 153l59 -188z" />
<glyph unicode="&#xf6ca;" horiz-adv-x="946" d="M469 1464l-336 168l64 140l276 -113l281 113l59 -132z" />
<glyph unicode="&#xf6cb;" horiz-adv-x="991" d="M858 1614q0 -59 -41 -100t-100 -41t-100.5 40.5t-41.5 100.5q0 59 41 100t101 41q59 0 100 -41t41 -100zM416 1614q0 -59 -41 -100t-101 -41q-59 0 -100 40.5t-41 100.5q0 59 41 100t100 41t100.5 -41t41.5 -100z" />
<glyph unicode="&#xf6ce;" horiz-adv-x="751" d="M575 1466l-442 109l62 188l423 -153z" />
<glyph unicode="&#xf6cf;" horiz-adv-x="1101" d="M254 1462l-121 105l260 305l150 -129zM647 1460l-117 109l297 289l140 -138z" />
<glyph unicode="&#xf6d0;" horiz-adv-x="868" d="M133 1518v165h600v-165h-600z" />
<glyph unicode="&#xf8ff;" horiz-adv-x="2138" d="M340 750q-6 -63 0 -123l-307 -31q-12 90 0 182zM1087 727q4 0 5 10q0 10 -5 11q6 -11 0 -21zM1081 731q10 0 5 4t-1 4v2q-10 0 -4 -4t0 -4v-2v0zM1075 735q-4 -4 -4 -2q0 4 4 2zM1075 731h2v6q0 10 -8 2q4 0 6 -2q-4 0 -6 -4t6 0v-2zM1069 727q-6 10 0 21q-4 0 -4 -11 q0 -10 4 -10zM1061 733q-4 -2 -4 2q0 6 4 4v2q-4 2 -5 -5t5 -5v2zM1051 741v-6q0 -4 -1 -3t-1 3v6h-2v-6q0 -4 2 -4q4 0 4 4v6h-2zM1044 733h-4v12h-2v-14h6v2zM1294 -41l-479 -125l47 -113h414l22 56l-8 20l-143 -37l-31 84l205 52zM1294 131l-479 -123l27 -63l479 121z M819 283v-97l29 -69l471 121v45h-500zM1149 674q-23 4 -42.5 5t-37.5 1q-16 0 -36.5 -1t-45.5 -5l31 -281h104l27 281v0zM920 393l-33 264q-29 -6 -46.5 -13t-31.5 -11q-16 -6 -25.5 12.5t-10.5 42t3 46t17 26.5q61 16 132.5 28.5t143.5 12.5q76 0 146.5 -12.5t134.5 -28.5 q10 -4 14 -25.5t2 -46t-11 -43t-26 -12.5q-29 12 -82 24l-26 -264h100q57 49 96 125t39 168q0 80 -30.5 151.5t-83 124t-123 83t-150.5 30.5t-150.5 -30.5t-123 -83t-83 -124t-30.5 -151.5q0 -86 36 -163t99 -130h103zM1595 686q0 -104 -37.5 -195.5t-97.5 -154.5v-164 l-33 -10l66 -156l-66 -16l66 -150l-68 -18l21 -49l-64 -146h-116q-6 -41 -62.5 -69.5t-134.5 -28.5q-80 0 -135 28.5t-62 69.5h-116l-111 267l64 18l-66 154l72 20l-39 90v162q-59 68 -96 158t-37 190q0 111 41 206t112.5 166.5t168 112.5t204.5 41q109 0 204 -41 t166.5 -112.5t113.5 -166.5t42 -206zM2105 776q4 -47 5 -90t-3 -88l-303 29q6 59 0 123l301 26v0zM1731 1477q35 -29 66.5 -61t60.5 -66l-232 -191q-16 23 -40.5 46.5t-45.5 39.5zM1130 1403q-29 4 -61 4q-31 0 -59 -4l-31 297q45 4 90 4q47 0 90 -4l-29 -297v0zM279 1352 q31 35 61.5 66.5t65.5 60.5l196 -236q-23 -16 -46.5 -39.5t-39.5 -46.5l-237 195v0z" />
<glyph unicode="&#xfb00;" horiz-adv-x="1343" d="M840 1249q-41 14 -91.5 22.5t-95.5 8.5q-102 0 -150 -50t-48 -149v-63h356v59q0 98 29 172zM1366 1280q-16 4 -53 11t-78 7q-84 0 -123 -48t-39 -154v-78h238v-203h-238v-815h-262v815h-356v-815h-260v815h-179v203h179v49q0 98 27.5 176t85 134.5t147.5 86t215 29.5 q74 0 155.5 -12.5t149.5 -32.5q96 63 254 63q49 0 93 -5t62 -9z" />
<glyph unicode="&#xfb01;" horiz-adv-x="1218" d="M817 0v815h-362v-815h-260v815h-179v203h179v33q0 221 124.5 341.5t387.5 120.5q80 0 160.5 -10t158.5 -26l-47 -220q-72 18 -145.5 29.5t-141.5 11.5q-121 0 -179 -58t-58 -169v-53h622v-1018h-260z" />
<glyph unicode="&#xfb02;" horiz-adv-x="1218" d="M817 0v1288q-78 12 -155 12q-106 0 -156.5 -50t-50.5 -158v-74h223v-203h-223v-815h-260v815h-179v203h179v65q0 100 26.5 179t85 134.5t153.5 85t228 29.5q115 0 226.5 -11t162.5 -19v-1481h-260z" />
<glyph unicode="&#xfb03;" horiz-adv-x="1832" d="M848 1245q-45 16 -96.5 25.5t-98.5 9.5q-102 0 -150 -50t-48 -149v-63h356v33q0 55 9.5 104t27.5 90zM1434 0v815h-361v-815h-262v815h-356v-815h-260v815h-179v203h179v49q0 98 27.5 176t85 134.5t147.5 86t215 29.5q78 0 171 -15.5t165 -37.5q57 37 137 55t182 18 q80 0 161 -10t159 -26l-48 -220q-72 18 -145.5 29.5t-140.5 11.5q-121 0 -179.5 -58t-58.5 -169v-53h623v-1018h-262z" />
<glyph unicode="&#xfb04;" horiz-adv-x="1832" d="M842 1249q-43 14 -93.5 22.5t-95.5 8.5q-102 0 -150 -50t-48 -149v-63h356v65q0 92 31 166zM1434 0v1288q-76 12 -156 12q-106 0 -155.5 -50t-49.5 -158v-74h215v-203h-215v-815h-262v815h-356v-815h-260v815h-179v203h179v49q0 98 27.5 176t85 133.5t147.5 85t215 29.5 q76 0 163 -13.5t158 -33.5q59 33 136 50t180 17q115 0 226.5 -11t162.5 -19v-1481h-262z" />
<glyph unicode="&#xfb06;" horiz-adv-x="1591" d="M1530 8q-49 -12 -107.5 -20t-109.5 -8q-86 0 -143.5 16t-92.5 55t-49 100.5t-14 153.5v510h-174v203h174v22q0 119 -64.5 194t-179.5 75q-90 0 -133 -41t-43 -107q0 -51 29.5 -90t83.5 -59l-21 -197q-39 12 -87 20.5t-99 8.5q-74 0 -111 -26.5t-37 -72.5q0 -43 32 -67.5 t78 -44t101 -41t101.5 -55t78 -87t31.5 -139.5q0 -70 -27.5 -130t-83 -105t-138.5 -70.5t-193 -25.5q-63 0 -124 7t-110 19l15 217q47 -18 110.5 -29.5t120.5 -11.5q78 0 118 28t40 77q0 45 -31 69.5t-78 44t-100 40t-100.5 53t-78 87t-30.5 140.5q0 63 24.5 118.5 t70.5 96.5t110.5 63.5t144.5 22.5q-41 27 -63.5 70t-22.5 96q0 63 27.5 121.5t83 102.5t139.5 69.5t195 25.5t199.5 -27.5t151 -85t97.5 -142.5t35 -199v-35h244v-203h-244v-461q0 -90 24.5 -122.5t90.5 -32.5q33 0 63.5 4t56.5 10z" />
<glyph horiz-adv-x="1818" d="M1470 535q0 287 -174 286q-49 0 -90 -26.5t-69.5 -72.5t-44 -105.5t-15.5 -122.5v-285q14 -4 51 -12.5t86 -8.5q119 0 187.5 83.5t68.5 263.5zM1745 561q0 -129 -37 -235.5t-107.5 -184.5t-174 -119.5t-232.5 -41.5q-127 0 -230.5 18t-146.5 31v1259q-78 12 -155 12 q-106 0 -156.5 -50t-50.5 -158v-74h215v-203h-215v-815h-260v815h-179v203h179v65q0 100 26.5 179t85 134.5t153.5 85t228 29.5q115 0 226.5 -11t162.5 -19v-424q0 -47 -4 -103.5t-12 -95.5h4q39 84 120 132t185 48q182 0 278.5 -125t96.5 -352z" />
<glyph horiz-adv-x="1839" d="M1440 0v651q0 84 -28 126t-97 42q-49 0 -92 -25.5t-76 -71.5t-51.5 -106.5t-18.5 -126.5v-489h-260v1288q-78 12 -155 12q-106 0 -156.5 -50t-50.5 -158v-74h215v-203h-215v-815h-260v815h-179v203h179v65q0 100 26.5 179t85 134.5t153.5 85t228 29.5q115 0 226.5 -11 t162.5 -19v-424q0 -53 -4 -108.5t-14 -98.5h4q45 88 132 138t202 50q84 0 142 -24.5t94 -68.5t51.5 -102.5t15.5 -127.5v-715h-260z" />
<glyph horiz-adv-x="1214" d="M1077 -76q0 -106 -20.5 -185t-66.5 -134.5t-121.5 -84t-186.5 -28.5q-35 0 -74 5t-71 16l16 223q31 -10 63.5 -17.5t59.5 -7.5q80 0 110.5 41t30.5 146v917h-362v-815h-260v815h-179v203h179v33q0 221 124.5 341.5t387.5 120.5q80 0 160.5 -10t158.5 -26l-47 -220 q-72 18 -145.5 29.5t-141.5 11.5q-121 0 -179 -58t-58 -169v-53h622v-1094z" />
<glyph horiz-adv-x="1744" d="M817 1288q-78 12 -155 12q-106 0 -156.5 -50t-50.5 -158v-74h215v-203h-215v-815h-260v815h-179v203h179v65q0 100 26.5 179t85 134.5t153.5 85t228 29.5q115 0 226.5 -11t162.5 -19v-887l297 424h320l-357 -465l383 -553h-327l-316 504v-504h-260v1288z" />
<glyph horiz-adv-x="1966" d="M604 86q0 -16 -9 -26.5t-20 -20.5q-8 -2 -16 -8t-18 0q-14 4 -10 15t6 22q0 12 18 20q12 0 20 8q6 -2 15.5 -1t13.5 -9zM881 158q14 -29 8 -59.5t-27 -53.5q-4 -8 -11 -9t-13 -5q-27 4 -30 26.5t-7 40.5q4 16 5 34t11 32q14 8 20.5 22.5t22.5 14.5l6 -6q-4 -14 4.5 -20.5 t10.5 -16.5zM508 371q-25 4 -52.5 3t-54.5 -3q-16 -2 -30.5 -5.5t-24.5 -11.5q-2 -33 -6 -66.5t-8 -66.5q4 -53 2 -111.5t2 -113.5q8 0 15 3t14 -1q12 4 23 -1t24 1q2 33 2 63q0 33 2 66q4 10 13 15t20 10q8 4 16 -0.5t14 6.5l-2 57q-8 10 -19.5 9t-23.5 -1q-8 -8 -14 -8 q-16 4 -15 19.5t-4 25.5q-4 8 9 21q20 6 39.5 9t39.5 7l13 8q-4 18 1 34t5 32zM682 70q-6 23 -6 45q0 23 1 45t-1 43.5t-14 40.5q-23 14 -48 24l-16 11q-16 -4 -33.5 -1t-34.5 -10q-14 -8 -14 -22t-2 -31q10 -4 23.5 -3t25.5 2t23.5 -2t19.5 -15q-2 -8 3 -12.5t-1 -12.5 q-6 -10 2 -16q4 -4 2 -10.5t-8 -8.5q-14 -4 -27.5 -3t-29.5 -3q-23 -10 -35 -31.5t-16 -44.5q-6 -10 -1 -21t-3 -22q0 -14 10 -22t20 -13q10 10 17 5q16 -4 29.5 9t29.5 23q10 2 12 -2t2 -12q0 -6 -1 -14.5t5 -12.5q10 -4 16.5 0t16.5 4q8 4 16.5 5.5t14.5 7.5l2 80v0z M938 61q18 35 13 72t-13 78q2 6 -5 12t-16.5 10.5t-17.5 9.5t-12 7q-4 4 -10 4q-4 0 -7 -6q-23 2 -39 -8q-10 -6 -15 -16.5t-13 -14.5q-10 -6 -19 6q8 37 4 75t-10 77l-4 14h-16q-18 -6 -16.5 -22.5t-2.5 -28.5q-6 -35 -4 -70t-4 -70q4 -35 0 -67.5t0 -63.5q0 -18 -3 -35.5 t-1 -37.5q14 -8 31.5 -2t32.5 12q10 4 16 2t11 -8t10.5 -12.5t11.5 -10.5q16 0 26 2q23 12 48.5 39.5t23.5 52.5zM1147 252q-16 -2 -33.5 -5t-28.5 -22q-8 -8 -10 -23.5t-20 -11.5q-4 16 -4 29v31q-8 4 -15.5 0t-15.5 0q-14 -8 -23 -27q0 -59 1 -113.5t8 -113.5l6 -8 q10 -8 23.5 -3t23.5 1q-6 23 -1 42t-3 42q4 23 10 46t22 44q12 10 26.5 13t27.5 13q2 16 6 33t0 33zM1249 31q0 41 -2 80t-2 75q0 14 2 27.5t-2 26.5q-14 10 -27.5 4t-29.5 -4q-14 -23 -10 -49.5t0 -53.5q-4 -10 -4 -24t-3 -29q4 -20 1 -45t12 -45q31 0 61 10q4 6 4 12v15z M1245 367q-4 10 -9 18t-15 12q-4 4 -10.5 5t-10.5 -5q-10 -12 -14 -30.5t6 -30.5q4 -10 16.5 -11t22.5 3q18 12 14 39zM1513 -20q-8 16 -16 33.5t-20 31.5q-12 23 -26.5 42t-18.5 46q-4 10 -10.5 17.5t-2.5 17.5q14 16 34 26.5t34 26.5l-19 35q-18 -2 -32.5 -9t-30.5 -11 q-8 -4 -18.5 -12.5t-20.5 1.5q2 41 3 81t-1 79l-4 6q-16 0 -28.5 5t-26.5 10q-4 -23 -7.5 -48.5t1.5 -50.5q-6 -16 -1 -39.5t-4 -40.5q2 -31 1 -56.5t-3 -50t-2 -48.5q0 -25 2 -56l-2 -14h49q6 2 13.5 -2t11.5 2v27q0 14 -2 30q2 16 -4 34t14 24q10 -4 11.5 -13.5t7.5 -17.5 q-2 -14 7 -24.5t13 -22.5q20 -12 30.5 -32.5t29.5 -35.5q6 2 11 -3t15 -1q12 1 12 13zM870 1104q-4 23 -15 44t-38 26q-4 -10 -13 -7.5t-16 0.5q-14 6 -28.5 2t-24.5 -14q-23 -31 -7.5 -59.5t32.5 -55.5q4 -8 10 -6t14 0q14 -4 26.5 3t25.5 12q12 12 27 22t7 33zM1571 -127 q-45 4 -100.5 -5t-98.5 -3q-115 4 -223.5 -8.5t-220.5 0.5q-51 -8 -99.5 -3t-97.5 9q-59 4 -121.5 3t-126.5 -1q-43 0 -102 -3t-102 -14q-8 -2 -19 -2q-8 0 -12 11q0 33 -2 66.5t8 66.5q4 41 2 82t4 82q-8 47 -1 91t-1 91q0 66 5 132.5t9 135.5q4 74 1 146.5t1 146.5 q8 16 23.5 13t30.5 1q16 -10 37.5 -5t37.5 3q6 6 15.5 11.5t11.5 -9.5q4 -4 1 -12t5 -12q-4 -29 -3 -78t4 -106.5t7.5 -118t6.5 -109.5q66 20 120 56t117 59q10 4 19.5 12t23.5 12q4 2 8 6.5t13 0.5q10 -4 8 -14.5t-2 -20.5q-20 -59 -10 -125q4 -10 13 -6t15 4 q16 14 34.5 23.5t35.5 21.5q20 12 40.5 23.5t43.5 19.5q25 16 48 32.5t50 26.5l41 33q2 8 12 14q6 0 11.5 -4t11.5 -8q0 -29 6 -58.5t6 -58.5q2 -6 6 -5t6 -3q8 -10 4 -20.5t-8 -20.5l4 -4q35 8 65 26.5t59.5 39t59 39t64.5 26.5q10 10 22.5 13t22.5 14q10 2 18.5 9t17.5 13 t19.5 9.5t22.5 -7.5q4 0 8 -2t6 -6q-2 -8 1.5 -13t7.5 -11q-4 -16 0 -29.5t-4 -26.5q2 -27 0 -51.5t10 -46.5q-4 -14 5 -25.5t-1 -21.5q2 -16 0 -29.5t8 -25.5q2 -10 3 -19.5t-5 -17.5q4 -23 5 -47.5t9 -47.5q-4 -8 -2 -16t2 -16q0 -78 11.5 -151t13.5 -150q0 -4 3 -9.5 t-1 -9.5zM926 1360q-25 -27 -60 -17q-10 12 -18 23.5t-10 26.5q-27 41 -72 51t-88 22l-64 4q-4 -4 -12 -2t-14 -2q-68 -20 -113 -43q-12 -16 -31.5 -27.5t-23.5 -33.5q-12 -31 -16.5 -70t-6.5 -73q10 -8 22.5 -5t22.5 0q43 4 86 5h90q8 -4 3 -15q-16 -12 -32 -1t-32 5 q-20 2 -41.5 -1t-42.5 -1q-18 -4 -39 -4q-18 0 -35 -10l-6 -8q-4 -39 -3 -63.5t5 -65.5q4 -14 1 -28.5t7 -29.5q27 -2 42.5 -1t28.5 2t28.5 3.5t42.5 2.5q6 4 13 2t13 -5q2 -2 1 -4t1 -4l-8 -4q-25 4 -43 3t-36.5 -3t-41 -4t-53.5 0q-23 -2 -47.5 -4t-46.5 0q-33 -2 -68 -2 t-63 8l-4 6q6 6 18 11q16 -8 37 -9.5t43 -5.5q14 2 28.5 1t24.5 7q-2 53 8.5 94.5t14.5 96.5q-2 4 -6 8q-31 2 -58.5 0t-56.5 10q-4 10 6 11q29 -8 58 -9q29 0 57 2l4 7q4 35 11 70.5t20 64.5v6q47 53 107.5 86t135.5 41q37 4 74 -4t70 -23q10 -4 20 -4t21 -4 q35 -8 69.5 -24.5t57.5 -47.5q4 -4 0 -18zM915 1145q6 -39 -14 -64q-23 -14 -41 -31.5t-45 -21.5q-12 4 -14 -7t-12.5 -3t-24.5 4t-27 -2q-12 0 -22 1t-21 5q-16 14 -31.5 31.5t-5.5 42.5q6 18 17.5 34.5t32.5 26.5q23 10 45 21.5t51 5.5q33 -2 64.5 -8t47.5 -35zM1327 1028 q-25 0 -52.5 -1t-51.5 -9q-8 4 -15.5 5t-11.5 11q4 29 7 57.5t-5 57.5q-4 6 -13 1t-16 -9q-29 -16 -54 -40t-30 -59q-8 -8 -18 -11t-20 1q-10 14 -6.5 30.5t-0.5 33.5l-2 63q-6 6 -16 3t-21 1q-4 4 -13 2t-9 9q27 -2 52.5 2t53.5 0q6 -6 7 -15v-16t2 -14.5t10 -10.5 q29 12 53.5 29.5t52.5 28.5q12 -8 28.5 -3t21.5 -16q4 -23 3 -44t1 -44q4 -6 3 -13t5 -11q18 -4 26 0q8 0 16.5 -2.5t18.5 -2.5q6 -4 0 -10zM1802 1169q0 -8 -4 -8q-23 4 -43 1t-43 -5q-70 -4 -109.5 -6t-74.5 -8q-16 -14 -14 -32.5t-7 -35.5q0 -10 3 -16t6 -15 q8 -10 28 -14q14 2 27.5 8t19.5 19q0 14 -14 24q-10 8 -21.5 6t-19.5 9q6 10 19.5 8t25.5 -2q20 -6 31 -33q-2 -31 -37 -55q-10 -4 -21.5 -5t-21.5 -5q-25 6 -50.5 16t-41.5 33q-8 25 -2 46t8 44q-4 10 -12.5 8t-18.5 0l-67 -2q0 4 -2 4t-3 4q6 4 15 4q8 0 14 2q18 -4 39 -2 t39 2q8 6 9 15.5t1 19.5q6 14 7 32.5t12 29.5q10 6 16 -2.5t12 -12.5q10 -16 6 -35.5t5 -38.5q8 -12 21 -8t24 0q47 4 100 3t131 10q6 -5 8 -7z" />
<glyph horiz-adv-x="2695" d="M1696 1182q-10 8 -14.5 -1.5t-10.5 -4.5q-47 -23 -62.5 -70t-13.5 -94q14 -4 24.5 8t25.5 8q6 14 17 29.5t20.5 31t12.5 33t-12 33.5q12 0 13 10v17zM944 475q-14 4 -26.5 -6t-20.5 -23q-23 -29 -40 -61.5t-3 -67.5q10 -4 14 2.5t9 12.5q23 23 40 47t31 55zM1227 430 q4 10 8 27.5t-12 21.5l-11 -59q10 2 11 4q0 2 4 6zM762 -8q-6 23 -30.5 27t-43.5 -5q-23 -18 -44 -38.5t-38 -43.5q-10 -31 -24.5 -61.5t-26.5 -61t-19.5 -62.5t-3.5 -66q6 -2 7.5 1t5.5 7q27 37 58.5 71.5t62 71.5t55.5 76t41 84zM1171 -184q-4 -23 -7 -47.5t5 -47.5 q6 -6 16.5 -5t19.5 7.5t13.5 17.5t-1.5 28q2 8 5 22t2 27.5t-6.5 24t-17.5 12.5zM1446 -311q12 27 4 57.5t-25 52.5q-10 -12 -12 -26.5t-4 -28.5q4 -16 9 -33.5t28 -21.5zM707 905q-4 -4 -8.5 -8t-20.5 -8t-49 -9.5t-94 -9.5q-70 -6 -132.5 -17t-128.5 -34 q-10 -23 -27.5 -16.5t-29.5 12.5q-2 8 2 14.5t10.5 11.5t12.5 10t8 13q12 25 21.5 49.5t17.5 49.5q-4 12 4 26.5t14 26.5q45 104 86 209.5t66 216.5q-8 29 6 43q12 4 16 -4t11 -15q-14 -80 -41 -153.5t-58 -146t-60.5 -146.5t-49.5 -152l4 -4q78 12 149.5 26.5t153.5 16.5 q25 -4 55 -4q31 0 55 10l7 -8v0zM1026 967q-10 -25 -18.5 -50.5t-26.5 -48.5q-14 -6 -25.5 1.5t-17.5 19.5q-33 76 -20 153q-4 2 -2 16.5t3 33t1 36.5t-7 27q-12 -31 -13 -63.5t-2 -64.5t-8 -61.5t-32 -56.5q-4 -4 -14 -7t-24.5 3t-27 23.5t-18.5 58.5q6 39 8 75t9 73 q4 14 -4.5 29.5t8.5 27.5q14 8 26 -8q2 -31 -2 -65t-6 -65.5t-1 -59t13 -48.5q14 -10 21.5 -4t10.5 18.5t5 25.5t6 18q8 41 6 86t11 86q6 6 10 15t8 16t11.5 10.5t19.5 -5.5q14 -41 15 -78.5t-1 -76.5t-1 -78t14 -78q2 -6 9 -8t13 6l4 11q4 12 9 24t12.5 22.5t17.5 10.5z M1341 1024q-14 -35 -44.5 -60.5t-71.5 -25.5t-77 15.5t-54 50.5q-16 23 -15.5 48t4.5 54q4 18 15.5 30.5t13.5 30.5q59 49 131 25q8 -6 16.5 -9t6.5 -16q-6 -8 -14.5 0.5t-18.5 8.5q-55 14 -103 -33q-16 -25 -24 -54.5t4 -58.5q45 -61 111 -69q18 8 39 8q23 0 38 20 q12 8 19.5 25.5t23.5 9.5zM1716 1389q-6 -10 -19.5 -20.5t-29.5 -8.5q-4 6 -9 14t-16 -2q-59 -47 -113 -99t-77 -122q-6 -41 -10 -86t2 -88t23.5 -81t52.5 -65q20 -16 44.5 -13t49.5 1q12 8 21.5 17.5t21.5 17.5q4 -18 -13.5 -26.5t-29.5 -20.5q-31 -12 -67 -5t-60 29 q-47 43 -55 95q-10 4 -11 10q0 6 2 12t3 12.5t-7 10.5q4 6 2 13t-5 15.5t-4 15.5t5 17q-2 61 17.5 113.5t52.5 98.5t76 86t88 75q8 0 18 3t21 3q10 0 17 -4t9 -18zM1995 987q-6 -16 -18.5 -31.5t-30.5 -19.5q-16 4 -23.5 13t-17.5 22l4 28q10 -4 9 -16t13 -16q10 -4 19.5 6 t13.5 16q8 47 1 92t-32 86l-12 -6q-25 -23 -46.5 -42t-35.5 -50l-16 -8q-29 -29 -49.5 -60.5t-44.5 -54.5q-12 -2 -17.5 3t-8.5 13.5t-4 18.5t-5 16q8 20 -6 35q-12 2 -13.5 -7t-7.5 -13q-16 -16 -29.5 -23.5t-35.5 -9.5q-23 6 -29 18.5t-3 27.5t8 33.5t5 35.5q8 31 26.5 54 t41.5 48q20 4 44.5 12.5t41.5 -16.5l8 -12q-12 -35 -15.5 -73t-7.5 -75q2 -6 5.5 -13t11.5 -7q23 0 28 18.5t19 30.5q45 39 84 79t76 81q12 -4 17 -15.5t6 -24t2 -25.5t7 -21q10 -4 7 -17q16 -31 15 -63.5t-5 -67.5zM2179 1194q-4 59 -32.5 118.5t-90.5 88.5q12 18 25.5 16 t26 -12t22.5 -25.5t18 -23.5q33 -39 47.5 -85t15.5 -95.5t-10.5 -98.5t-29.5 -94q-29 -70 -84 -130t-129 -91q29 20 54.5 43.5t43.5 54.5q33 33 61.5 72t36.5 92q25 41 27 84t-2 86zM1497 432q-37 -6 -71.5 -16t-69.5 -20.5t-70 -17.5t-72 -3q-6 -6 -10 -22.5t-1 -33 t11.5 -26.5t26.5 -4q6 8 9 23.5t16 19.5q10 -18 3 -35.5t-20 -32.5q-6 -4 -21.5 -5t-29.5 8t-23.5 32t-3.5 66q-4 6 -9 12t-1 16q23 16 25 42t6 52q-4 2 -4 5q0 2 -4 4q-35 -23 -53.5 -60t-45.5 -65q0 -14 -8 -25.5t-17 -23t-16.5 -23.5t-3.5 -29q-6 -6 -7 -16t-2 -19.5 t-5 -16.5t-18 -9q-18 4 -24.5 15.5t-6.5 23.5q0 14 2 28.5t0 26.5q-6 39 2 72t2 67q-18 -10 -23.5 -28.5t-19.5 -34.5q-10 -12 -19.5 -28.5t-19.5 -31t-25.5 -21.5t-35.5 -3q-23 35 -8.5 74t34.5 73q8 10 18.5 23.5t22 24t25.5 15.5t31 -1q10 -6 20 0q18 43 27.5 90t13.5 94 l20 17q12 -4 14.5 -10.5t-0.5 -14.5t-6 -16.5t-1 -16.5q-8 -57 -19.5 -113.5t-15.5 -111.5q-2 -31 -8.5 -59.5t4.5 -59.5q33 43 61.5 94.5t73.5 94.5q12 16 28.5 32.5t36.5 28.5q16 -12 30.5 -29.5t31.5 -27.5q0 -18 -2 -41t2 -41q55 12 105.5 20t103.5 25q16 -11 14 -27z M836 -14q-2 -78 3 -156t1 -152.5t-28 -142t-81 -125.5q-66 -41 -144.5 -50t-152.5 11q-8 4 -16 11.5t-8 17.5q4 20 12 40.5t33 29.5q-6 -16 -13.5 -33t-11.5 -35q27 -16 59.5 -22.5t68.5 -4.5t70 12.5t60 24.5q29 10 46.5 28.5t27.5 41t18 46t19 46.5q12 72 14 155t-2 144 q8 23 2 49.5t-2 48.5q-4 10 -12 7t-13 -5q-16 -16 -22 -35.5t-23 -31.5q2 -16 -4 -24.5t-15 -15.5t-17.5 -15.5t-8.5 -22.5q-41 -47 -76.5 -95t-70.5 -98q-8 -12 -14.5 -24t-22.5 -10q-10 14 -11 29.5t0 30.5t3 31.5t0 33.5q10 35 18 71.5t35 71.5q18 49 52 97t83 79 q29 8 50.5 -5t43.5 -28q16 20 25 49q25 -10 25 -41q-10 -10 -3 -17t3 -17zM1108 -106q-8 -6 -16.5 -3t-16.5 7t-17 7t-18 -3q-14 -10 -20 -22.5t-9 -26t-7.5 -26.5t-12.5 -24q-4 -29 -10 -54t-6 -52q-6 -4 -12.5 -8t-16.5 0q-12 16 -6 36.5t4 36.5q14 18 11 44t8 47 q-6 10 -5.5 25.5t-3.5 25.5q-10 4 -15 -4.5t-15 2.5q4 20 28 37q16 0 24.5 -12.5t14.5 -24.5q8 2 15.5 11t14.5 16.5t16.5 9.5t19.5 -9l51 -36v0zM1939 -66q-10 -12 -23 -16t-27.5 -6l-29 -4t-24.5 -10q-35 -4 -65.5 -13.5t-45.5 -44.5q-8 -20 -19 -39.5t-21.5 -40 t-16.5 -42t0 -46.5q4 -18 22.5 -17t30.5 5q8 0 13.5 9t15.5 3t2 -12t-12 -14q-16 -10 -37 -15.5t-41 4.5q-16 16 -24.5 34t-2.5 40q4 16 17.5 49t54.5 103q-16 8 -32.5 6t-32 -5t-32 -5t-32.5 4q10 12 25.5 18t29.5 10q27 6 56.5 4t46.5 25q14 23 10 46.5t0 47.5 q-10 4 -10 13v12q-12 23 -30.5 35t-40.5 17t-44.5 6t-42.5 1q-47 -4 -87 -34.5t-56 -71.5q-14 -33 -11.5 -66t17.5 -67q-4 -25 5 -47.5t20.5 -44t16.5 -46t-7 -51.5q-10 -10 -25.5 -8t-28.5 6q-29 14 -32 45t-13 58q16 12 14.5 33.5t10.5 37.5q4 10 2 26.5t-17 22.5 q-35 -4 -77 -4q-41 0 -70 -24q2 -23 5 -45.5t2 -45t-9 -43t-29 -34.5q-23 -6 -49 8q-23 18 -19.5 44t3.5 50q16 31 31.5 65t50.5 46q16 -10 33.5 -6t33.5 8l101 2q10 10 9 25.5t3 27.5q18 59 64.5 105.5t111.5 50.5q35 4 67.5 2t63.5 -19q2 -10 8 -16t14.5 -10t15.5 -10.5 t9 -16.5q18 -29 13 -67.5t-11 -71.5q47 0 92 8t86 16z" />
<glyph horiz-adv-x="1460" d="M1104 686q0 225 -95.5 352t-279.5 127q-82 0 -150.5 -30.5t-117.5 -90t-77 -147.5t-28 -199q0 -113 23.5 -201.5t71 -151t117 -95.5t161.5 -33q82 0 150.5 31t119 90t78 147t27.5 201zM1450 -416q-127 -20 -223.5 -12t-216 33.5t-196.5 36t-179 -3.5v235q119 14 208 5 t204.5 -34.5t201.5 -34t201 8.5v-234zM1386 717q0 -174 -53 -313.5t-146 -234.5t-216 -143.5t-262 -48.5q-154 0 -274 46.5t-199.5 135.5t-120.5 216t-41 291q0 174 53 313t146.5 234.5t216 143.5t262.5 48q154 0 273.5 -46t199.5 -135t120.5 -216t40.5 -291z" />
<glyph horiz-adv-x="946" d="M752 1464l-279 113l-280 -113l-60 135l344 173l336 -170z" />
<glyph horiz-adv-x="1034" d="M901 1659q-94 -168 -258 -168q-47 0 -82 13.5t-76 39t-58 34.5t-44 9q-68 0 -119 -88l-131 90q94 168 258 168q47 0 83 -13t76 -39t58.5 -35t44.5 -9q35 0 63.5 21.5t53.5 64.5z" />
<glyph horiz-adv-x="849" d="M715 1759q0 -57 -18.5 -108.5t-56.5 -89t-93 -59t-125 -21.5t-124 21.5t-91 60.5t-55.5 89t-18.5 107h156q0 -49 39 -83t96 -34q61 0 98 33t37 84h156z" />
<glyph horiz-adv-x="579" d="M446 1626q0 -66 -46 -112t-109 -46q-66 0 -112 46.5t-46 111.5q0 63 46 109.5t112 46.5t110.5 -45t44.5 -111z" />
<glyph horiz-adv-x="813" d="M680 1696q0 -111 -79 -178.5t-204 -67.5q-127 0 -195.5 57.5t-68.5 169.5q0 111 80 178.5t205 67.5t193.5 -57t68.5 -170zM504 1686q0 109 -96 108q-43 0 -70 -27.5t-27 -78.5q0 -109 95 -109q43 0 70.5 28t27.5 79z" />
<glyph horiz-adv-x="667" d="M285 1204l-152 82l213 375l189 -98z" />
<glyph horiz-adv-x="962" d="M829 1614q0 -59 -40.5 -100t-100.5 -41q-59 0 -100 40.5t-41 100.5q0 59 41 100t100 41t100 -41t41 -100zM416 1614q0 -59 -41 -100t-101 -41q-59 0 -100 40.5t-41 100.5q0 59 41 100t100 41t100.5 -41t41.5 -100z" />
<glyph horiz-adv-x="702" d="M682 1327q0 -57 -42 -99t-99 -42q-59 0 -100.5 42t-41.5 99q0 59 41 100t101 41q59 0 100 -41t41 -100zM303 1327q0 -57 -42 -99t-99 -42q-59 0 -100.5 41t-41.5 100t41 100t101 41q59 0 100 -41t41 -100z" />
<glyph horiz-adv-x="765" d="M401 1135l-227 342l188 100l193 -358z" />
<glyph horiz-adv-x="712" d="M276 1139l-143 102l234 332l176 -119z" />
<glyph horiz-adv-x="872" d="M614 1147l-180 166l-186 -166l-94 117l280 278l281 -274z" />
<glyph horiz-adv-x="948" d="M805 1366q-35 -86 -92.5 -133t-137.5 -47q-35 0 -63.5 13t-52 30.5t-49 35t-41.5 17.5q-29 0 -53.5 -25.5t-41.5 -60.5l-120 90q27 80 86 131t141 51q35 0 64.5 -13t54 -30.5t50 -35t40.5 -17.5q29 0 52.5 24.5t41.5 61.5z" />
<glyph horiz-adv-x="808" d="M143 1229v188h523v-188h-523z" />
<glyph horiz-adv-x="763" d="M643 1475q0 -150 -68.5 -232t-197.5 -82q-127 0 -193.5 82t-66.5 232h168q0 -53 25.5 -89t68.5 -36q45 0 69.5 32.5t24.5 92.5h170z" />
</font>
</defs>
</svg>
