<?xml version="1.0" standalone="no"?>
<!DOCTYPE svg PUBLIC "-//W3C//DTD SVG 1.1//EN" "http://www.w3.org/Graphics/SVG/1.1/DTD/svg11.dtd" >
<svg xmlns="http://www.w3.org/2000/svg" xmlns:xlink="http://www.w3.org/1999/xlink" version="1.1">
<metadata>
Created by FontForge 20141024 at Wed Jun  3 10:03:43 2015
 By System Administrator
Copyright Copr. 1999, Luc[as] de Groot &#60;www.FontFabrik.com&#62;. All rights reserved. Published by FontShop International &#60;www.fontfont.de&#62;
</metadata>
<defs>
<font id="TheSans-B6SemiBold" horiz-adv-x="550" >
  <font-face 
    font-family="TheSans"
    font-weight="400"
    font-stretch="normal"
    units-per-em="1000"
    panose-1="2 0 8 3 5 0 0 2 0 4"
    ascent="800"
    descent="-200"
    x-height="497"
    cap-height="675"
    bbox="-60 -254 1025 860"
    underline-thickness="86"
    underline-position="-119"
    unicode-range="U+0020-FB02"
  />
<missing-glyph 
 />
    <glyph glyph-name=".notdef" 
 />
    <glyph glyph-name=".null" horiz-adv-x="0" 
 />
    <glyph glyph-name="nonmarkingreturn" horiz-adv-x="218" 
 />
    <glyph glyph-name="space" unicode=" " horiz-adv-x="218" 
 />
    <glyph glyph-name="Scaron" unicode="&#x160;" horiz-adv-x="503" 
d="M259 720l-162 84l28 56l136 -61l133 61l26 -54zM460 202q0 -46 -18 -85t-51.5 -67t-80.5 -44t-104 -16q-44 0 -82 5t-70 14l12 104q33 -13 69.5 -20.5t74.5 -7.5q27 0 51 5.5t42 18t28.5 32t10.5 47.5q0 35 -22 56t-55 36.5t-71 29t-71 35t-55 55t-22 88.5q0 43 16 79.5
t47.5 62.5t76.5 40.5t104 14.5q29 0 61.5 -3.5t60.5 -9.5l-11 -96q-27 9 -56.5 14t-59.5 5q-64 0 -94 -26t-30 -68q0 -34 22 -54.5t55.5 -36t72 -30t72 -36.5t55.5 -55.5t22 -86.5z" />
    <glyph glyph-name="scaron" unicode="&#x161;" horiz-adv-x="421" 
d="M376 152q0 -35 -15 -65t-42.5 -51.5t-67.5 -33.5t-89 -12q-29 0 -58 3.5t-52 10.5l8 91q23 -9 51.5 -14t57.5 -5q42 0 68.5 17.5t26.5 47.5q0 25 -16 39t-40.5 23t-52.5 17.5t-52.5 23.5t-40.5 40.5t-16 68.5q0 33 12.5 61t37.5 48.5t63.5 32.5t89.5 12q23 0 47.5 -2.5
t46.5 -7.5l-6 -86q-45 14 -94 14q-45 0 -66 -16.5t-21 -45.5q0 -24 16.5 -38t40.5 -23.5t53 -18.5t53 -24t40.5 -40t16.5 -67zM217 566l-145 132l45 50l101 -83l101 83l44 -49z" />
    <glyph glyph-name="Yacute" unicode="&#xdd;" horiz-adv-x="548" 
d="M229 721l-19 60l193 74l28 -79zM326 241v-241h-109v241l-211 434h119l100 -213q27 -60 48 -114h2q11 30 25.5 62t30.5 64l95 201h115z" />
    <glyph glyph-name="yacute" unicode="&#xfd;" horiz-adv-x="490" 
d="M283 -35q-23 -62 -48 -104t-53.5 -67t-63 -35.5t-76.5 -10.5q-14 0 -32 2t-31 4l12 93q13 -4 29.5 -6t31.5 -2q18 0 34.5 5t32.5 17.5t30.5 34.5t26.5 55l18 49l-186 497h120l81 -227q12 -33 21.5 -65.5t17.5 -64.5h1q8 30 21.5 73.5t27.5 81.5l71 202h115zM236 566
l-43 57l153 125l54 -71z" />
    <glyph glyph-name="HT" horiz-adv-x="704" 
 />
    <glyph glyph-name="Thorn" unicode="&#xde;" horiz-adv-x="537" 
d="M519 366q0 -52 -20 -95.5t-56 -74.5t-87 -48.5t-113 -17.5h-29t-27 2v-132h-109v675h109v-99q19 2 37.5 2.5t41.5 0.5q118 0 185.5 -53.5t67.5 -159.5zM407 359q0 58 -37 94.5t-122 36.5q-15 0 -30 -1.5t-31 -3.5v-262q14 -2 30.5 -3t33.5 -1q72 0 114 35.5t42 104.5z
" />
    <glyph glyph-name="thorn" unicode="&#xfe;" horiz-adv-x="558" 
d="M519 273q0 -132 -67 -206t-192 -74q-21 0 -38 1t-37 5v-243h-107v974h107v-212q0 -26 -1.5 -56t-4.5 -51h2q20 43 59 69.5t96 26.5q89 0 136 -60.5t47 -173.5zM406 263q0 75 -23.5 115.5t-74.5 40.5q-30 0 -53 -16t-38.5 -41.5t-23.5 -57.5t-8 -64v-153q33 -10 78 -10
q32 0 58.5 10t45 32.5t29 58t10.5 85.5z" />
    <glyph glyph-name="Zcaron" unicode="&#x17d;" horiz-adv-x="538" 
d="M283 720l-163 84l29 56l136 -61l133 61l26 -54zM45 0v83l266 423q12 20 24 37.5t26 35.5q-22 -1 -53.5 -1h-83.5h-169v97h435v-86l-280 -437q-8 -14 -16.5 -27t-18.5 -27q14 2 53.5 2h104.5h161v-100h-449z" />
    <glyph glyph-name="zcaron" unicode="&#x17e;" horiz-adv-x="449" 
d="M47 0v76l221 327q-19 -1 -50.5 -1.5t-69.5 -0.5h-96v96h343v-75l-218 -326q9 0 24 0.5t32.5 1t35.5 0.5h33h97v-98h-352zM225 566l-145 132l45 50l101 -83l101 83l44 -49z" />
    <glyph glyph-name="onehalf" unicode="&#xbd;" horiz-adv-x="718" 
d="M431 0v60l67 58q32 28 43.5 44.5t11.5 33.5t-11 28t-33 11q-14 0 -29 -5t-26 -13l-19 65q20 9 46 15.5t52 6.5q62 0 89 -28t27 -64q0 -27 -14.5 -52t-50.5 -55l-41 -36h115v-69h-227zM122 -21l-68 48l499 642l68 -48zM128 355v224l-68 -31l-18 64l93 38h81v-295h-88z" />
    <glyph glyph-name="onequarter" unicode="&#xbc;" horiz-adv-x="715" 
d="M534 241l-75 -127h75v127zM613 52v-52h-79v52h-143l-5 57l109 186h118v-180h49v-63h-49zM123 -21l-68 48l499 642l68 -48zM128 355v224l-68 -31l-18 64l93 38h81v-295h-88z" />
    <glyph glyph-name="onesuperior" unicode="&#xb9;" horiz-adv-x="312" 
d="M128 355v224l-68 -31l-18 64l93 38h81v-295h-88z" />
    <glyph glyph-name="threequarters" unicode="&#xbe;" horiz-adv-x="718" 
d="M537 241l-75 -127h75v127zM616 52v-52h-79v52h-143l-5 57l109 186h118v-180h49v-63h-49zM126 -21l-68 48l499 642l68 -48zM262 443q0 -48 -38 -72.5t-107 -24.5q-17 0 -38 2.5t-32 4.5l10 59q11 -3 25 -5.5t28 -2.5q30 0 43.5 10.5t13.5 27.5q0 23 -21 32t-77 3v52h18
q43 0 58.5 11.5t15.5 28.5q0 14 -10 23t-34 9q-14 0 -28 -3.5t-25 -8.5l-14 54q17 7 41 11.5t50 4.5q60 0 85 -24t25 -55q0 -49 -46 -71q28 -3 42.5 -22.5t14.5 -43.5z" />
    <glyph glyph-name="threesuperior" unicode="&#xb3;" horiz-adv-x="308" 
d="M259 443q0 -48 -38 -72.5t-108 -24.5q-17 0 -37.5 2.5t-31.5 5.5l10 59q11 -3 24.5 -5.5t27.5 -2.5q31 0 44.5 10t13.5 27q0 23 -21 32t-77 3v52h18q43 0 58.5 11.5t15.5 28.5q0 14 -10 23t-34 9q-14 0 -28 -3.5t-25 -8.5l-14 54q17 7 41 11.5t49 4.5q30 0 51.5 -6.5
t34.5 -17.5t19 -25.5t6 -29.5q0 -49 -46 -71q28 -3 42.5 -22.5t14.5 -43.5z" />
    <glyph glyph-name="twosuperior" unicode="&#xb2;" horiz-adv-x="319" 
d="M44 355v60l67 58q32 28 43.5 44.5t11.5 33.5t-11.5 28t-32.5 11q-14 0 -29 -5t-27 -13l-19 65q21 9 46.5 15.5t51.5 6.5q31 0 53.5 -7.5t36.5 -20.5t20.5 -29t6.5 -34q0 -28 -15 -52.5t-50 -55.5l-41 -35h115v-70h-227z" />
    <glyph glyph-name="brokenbar" unicode="&#xa6;" horiz-adv-x="286" 
d="M99 388v368h85v-368h-85zM99 -244v378h85v-378h-85z" />
    <glyph glyph-name="minus" unicode="&#x2212;" 
d="M41 251v93h468v-93h-468z" />
    <glyph glyph-name="multiply" unicode="&#xd7;" 
d="M433 73l-161 162l-162 -162l-59 59l162 162l-162 161l66 66l161 -162l162 162l59 -59l-162 -162l162 -161z" />
    <glyph glyph-name="currency" unicode="&#xa4;" 
d="M427 54l-79 106q-37 -20 -82 -20q-34 0 -62 11l-70 -96l-82 58l71 88q-17 22 -27 53.5t-10 73.5q0 74 42 124l-75 94l80 58l73 -100q33 16 77 16q17 0 36 -3t36 -11l73 98l79 -59l-74 -93q14 -20 22.5 -48.5t8.5 -67.5q0 -73 -39 -121l82 -102zM369 334q0 48 -22 77.5
t-74 29.5q-38 0 -65 -28.5t-27 -81.5q0 -24 5 -44.5t16.5 -35.5t29.5 -24t44 -9q36 0 64.5 29.5t28.5 86.5z" />
    <glyph glyph-name="lslash" unicode="&#x142;" horiz-adv-x="297" 
d="M201 307v-307h-106v277l-86 -29l-12 81l98 33v368h106v-338l87 29l12 -82z" />
    <glyph glyph-name="exclam" unicode="!" horiz-adv-x="320" 
d="M215 177h-91l-18 528h126zM237 57q0 -29 -19.5 -48t-48.5 -19t-49 19t-20 48q0 28 20 47t49 19t48.5 -19t19.5 -47z" />
    <glyph glyph-name="quotedbl" unicode="&#x22;" horiz-adv-x="383" 
d="M320 460h-80l-15 241h110zM143 460h-79l-16 241h110z" />
    <glyph glyph-name="numbersign" unicode="#" 
d="M431 405l-15 -154h81v-74h-89l-19 -177h-79l19 177h-138l-18 -177h-80l19 177h-83v74h91l15 154h-82v73h90l18 172h80l-19 -172h138l18 172h79l-18 -172h82v-73h-90zM215 405l-16 -154h138l15 154h-137z" />
    <glyph glyph-name="dollar" unicode="$" 
d="M466 204q0 -33 -11.5 -63t-33 -54t-52.5 -41.5t-70 -24.5v-106h-78v101q-35 0 -64.5 3.5t-58.5 9.5l9 97q29 -10 63.5 -15.5t63.5 -5.5q52 0 86 21t34 66q0 30 -20.5 48t-51 31.5t-66.5 26.5t-66.5 33t-51 50.5t-20.5 80.5q0 32 11.5 61t32 51.5t50 38t65.5 21.5v96h78
v-91q28 -1 55 -4t50 -8l-10 -92q-29 9 -57 13t-54 4q-31 0 -52.5 -6.5t-34.5 -17.5t-19 -25t-6 -29q0 -28 20.5 -46t51.5 -31.5t67.5 -27.5t67.5 -34.5t51.5 -51.5t20.5 -79z" />
    <glyph glyph-name="percent" horiz-adv-x="755" 
d="M713 153q0 -36 -11.5 -66t-31.5 -51.5t-48.5 -33.5t-61.5 -12q-73 0 -108.5 41t-35.5 113q0 35 11 64.5t31.5 51t48.5 33.5t62 12q69 0 106.5 -38.5t37.5 -113.5zM161 -21l-69 48l499 642l68 -48zM338 509q0 -36 -11.5 -66.5t-31.5 -52t-48 -33.5t-62 -12
q-72 0 -107.5 41t-35.5 113q0 35 11 64.5t31 51t48 33.5t62 12q70 0 107 -38t37 -113zM629 147q0 48 -15.5 68.5t-49.5 20.5q-28 0 -46 -23t-18 -64q0 -48 16.5 -69t49.5 -21q27 0 45 23.5t18 64.5zM255 502q0 48 -16 68.5t-49 20.5q-28 0 -46 -23t-18 -63q0 -48 16.5 -69.5
t49.5 -21.5q27 0 45 23.5t18 64.5z" />
    <glyph glyph-name="ampersand" unicode="&#x26;" horiz-adv-x="796" 
d="M676 -21q-35 24 -73 52t-66 51q-49 -40 -115 -66t-147 -26q-56 0 -98 15.5t-70 42t-41.5 62t-13.5 76.5q0 33 9.5 62t27.5 54.5t42.5 49.5t54.5 47q-25 29 -42 53t-27.5 45t-15.5 41t-5 41q0 32 12.5 60.5t36 50.5t58.5 34.5t80 12.5q82 0 125 -39t43 -102
q0 -51 -28.5 -97.5t-93.5 -97.5q20 -20 44.5 -43.5t51 -47.5t54 -47.5t54.5 -44.5v-1q32 46 49.5 106.5t14.5 128.5h106q2 -82 -21.5 -157.5t-69.5 -135.5q35 -28 71 -54t63 -44zM346 587q0 29 -17 49t-54 20q-32 0 -52.5 -19.5t-20.5 -51.5q0 -23 14.5 -52t51.5 -71
q38 32 58 61t20 64zM460 141q-29 23 -58.5 48.5t-57 51.5t-52.5 50.5t-44 44.5q-46 -38 -66 -70t-20 -66q0 -24 9 -45.5t26 -38t41.5 -26t54.5 -9.5q54 0 95.5 17.5t71.5 42.5z" />
    <glyph glyph-name="quotesingle" unicode="'" horiz-adv-x="207" 
d="M143 460h-79l-16 241h110z" />
    <glyph glyph-name="parenleft" unicode="(" horiz-adv-x="304" 
d="M209 -211q-43 68 -71.5 132.5t-45 126t-23.5 120.5t-7 116t7.5 117.5t24.5 123.5t45.5 128t70.5 131l77 -37q-59 -103 -89.5 -219t-30.5 -239q0 -128 30 -242.5t93 -220.5z" />
    <glyph glyph-name="parenright" unicode=")" horiz-adv-x="304" 
d="M246 288q0 -57 -7.5 -117t-24.5 -123t-45.5 -128t-70.5 -131l-77 36q60 103 90.5 219t30.5 239q0 254 -122 463l81 38q43 -68 71 -132.5t44.5 -126t23 -121t6.5 -116.5z" />
    <glyph glyph-name="asterisk" unicode="*" horiz-adv-x="378" 
d="M300 466l-88 67l14 -110h-78l13 110l-88 -67l-38 67l102 43l-102 43l39 67l88 -66l-14 110h78l-13 -110l88 66l38 -66l-102 -43l102 -43z" />
    <glyph glyph-name="plus" unicode="+" 
d="M325 253v-195h-101v195h-183v89h183v194h101v-194h184v-89h-184z" />
    <glyph glyph-name="comma" unicode="," horiz-adv-x="242" 
d="M119 129q31 0 51 -24.5t19.5 -65t-28 -93t-90.5 -109.5l-45 40q25 27 38.5 49t17.5 40t0.5 32.5t-13.5 26.5q-12 15 -14 33t5 34t22 26.5t37 10.5z" />
    <glyph glyph-name="hyphen" unicode="-" horiz-adv-x="332" 
d="M46 240v86h240v-86h-240z" />
    <glyph glyph-name="period" unicode="." horiz-adv-x="242" 
d="M192 61q0 -29 -21 -50t-50 -21t-50 21t-21 50t21 50t50 21t50 -21t21 -50z" />
    <glyph glyph-name="slash" unicode="/" horiz-adv-x="449" 
d="M101 -161h-105l351 918h104z" />
    <glyph glyph-name="zero" unicode="0" 
d="M507 331q0 -92 -20 -156.5t-53 -105.5t-76 -60t-89 -19q-54 0 -96 17t-71.5 56.5t-44.5 104t-15 160.5q0 85 17.5 147.5t49.5 103.5t75.5 61t96.5 20q51 0 93 -16.5t71.5 -54.5t45.5 -101.5t16 -156.5zM392 326q0 71 -7 118t-22 75t-37 39.5t-52 11.5q-25 0 -46.5 -11.5
t-37 -39.5t-24.5 -73.5t-9 -112.5q0 -69 6 -117t20 -78t36.5 -43.5t54.5 -13.5q55 0 86.5 57.5t31.5 187.5z" />
    <glyph glyph-name="one" unicode="1" 
d="M71 0v96h169v444l-153 -60l-18 101l198 69h84v-554h148v-96h-428z" />
    <glyph glyph-name="two" unicode="2" 
d="M55 0v87l123 120q54 53 87 90t51.5 64t24.5 48t6 43q0 48 -31 79.5t-89 31.5q-43 0 -80.5 -14.5t-62.5 -33.5l-24 94q38 22 85.5 36.5t102.5 14.5t95.5 -15.5t67.5 -42t40 -60.5t13 -71q0 -32 -7 -61.5t-25 -61.5t-49.5 -68t-79.5 -82l-102 -96v-2q33 2 83 2.5t113 0.5
h91v-103h-433z" />
    <glyph glyph-name="three" unicode="3" 
d="M478 202q0 -50 -20 -89t-56.5 -66.5t-88.5 -42t-115 -14.5q-35 0 -68.5 4t-57.5 12l11 93q28 -9 58.5 -14t65.5 -5q78 0 117 30.5t39 79.5q0 48 -38 76.5t-116 28.5q-27 0 -50 -1.5t-49 -3.5v84h25q100 0 157.5 26.5t57.5 83.5q0 41 -30.5 64.5t-85.5 23.5q-42 0 -77 -10
t-65 -25l-10 91q36 14 78.5 23t93.5 9q52 0 91.5 -12t65 -33t38.5 -49.5t13 -62.5q0 -57 -31 -95t-88 -55l-1 -2q30 -3 55 -16t43 -33t28 -45.5t10 -54.5z" />
    <glyph glyph-name="four" unicode="4" 
d="M429 146v-146h-106v146h-293l-9 88l263 416h145v-408h100v-96h-100zM325 543h-1l-195 -303q20 1 48 1.5t56.5 0.5h53h38.5v301z" />
    <glyph glyph-name="five" unicode="5" 
d="M481 215q0 -51 -20 -92.5t-56.5 -71t-87.5 -45.5t-113 -16q-66 0 -122 13v98q29 -9 60.5 -14t69.5 -5q74 0 113 32.5t39 88.5q0 55 -43 83t-116 28q-32 0 -61.5 -2t-49.5 -6v344h361v-101h-260v-151q11 1 24 1h23q58 0 103 -14t75 -38.5t45.5 -58.5t15.5 -73z" />
    <glyph glyph-name="six" unicode="6" 
d="M509 221q0 -53 -16.5 -95.5t-46.5 -72.5t-72.5 -46.5t-94.5 -16.5q-109 0 -170.5 70.5t-61.5 207.5q0 101 24.5 175t68.5 122t106 71t137 23q17 0 34.5 -0.5t31.5 -2.5v-93q-17 3 -34.5 4.5t-38.5 1.5q-93 0 -144 -49.5t-71 -138.5q-2 -8 -4 -19t-4 -26h1
q24 36 63.5 55.5t89.5 19.5q49 0 87 -15t63.5 -40.5t38.5 -60.5t13 -74zM401 204q0 54 -29.5 86.5t-89.5 32.5q-29 0 -51 -10t-37.5 -26.5t-23.5 -36.5t-8 -39q0 -28 8 -52.5t23.5 -42.5t38.5 -28.5t54 -10.5q55 0 85 35.5t30 91.5z" />
    <glyph glyph-name="seven" unicode="7" 
d="M497 558q-36 -68 -70.5 -140.5t-65 -144.5t-56.5 -141.5t-46 -131.5h-123q23 67 51 138t58.5 142t62.5 139.5t65 128.5q-10 0 -35.5 -0.5t-58.5 -1t-69.5 -1t-69.5 -0.5h-87v105h444v-92v0z" />
    <glyph glyph-name="eight" unicode="8" 
d="M502 172q0 -43 -18.5 -77t-50 -57t-74 -35.5t-90.5 -12.5q-102 0 -161.5 44.5t-59.5 121.5q0 30 10.5 54.5t28.5 45.5t41.5 38t49.5 32q-53 29 -83.5 65t-30.5 93q0 39 16 71t44.5 55.5t68.5 36.5t88 13t86.5 -12t64.5 -33t40 -50.5t14 -64.5q0 -27 -9.5 -50t-25.5 -42
t-37 -35t-44 -31q25 -14 49 -29.5t42.5 -35.5t29.5 -46t11 -59zM377 491q0 39 -27.5 62t-76.5 23q-48 0 -74 -24.5t-26 -58.5q0 -19 6.5 -33.5t20 -27.5t33.5 -25t47 -25q40 23 68.5 48t28.5 61zM390 162q0 24 -10 42t-27 32.5t-39.5 26t-47.5 22.5q-21 -12 -40.5 -24.5
t-34 -27t-23.5 -31.5t-9 -38q0 -38 30.5 -63t88.5 -25q48 0 80 22.5t32 63.5z" />
    <glyph glyph-name="nine" unicode="9" 
d="M500 382q0 -103 -24.5 -177t-69 -121.5t-106.5 -70t-136 -22.5q-20 0 -42 1t-43 6v95q47 -11 94 -11q90 0 140.5 44.5t67.5 132.5q2 13 4.5 22.5t4.5 21.5h-1q-23 -31 -61 -48.5t-87 -17.5t-86.5 15t-63 41t-38.5 61.5t-13 77.5q0 52 17 94.5t47.5 72t73 45.5t92.5 16
q52 0 94.5 -16.5t72.5 -50.5t46.5 -86.5t16.5 -124.5zM384 440q0 58 -31 95.5t-91 37.5q-27 0 -48 -9.5t-36 -26.5t-22.5 -40t-7.5 -49q0 -57 30 -89.5t85 -32.5q29 0 51.5 9t38 25t23.5 36.5t8 43.5z" />
    <glyph glyph-name="colon" unicode=":" horiz-adv-x="292" 
d="M230 349q0 -29 -21 -50t-50 -21t-50 21t-21 50t21 50t50 21t50 -21t21 -50zM230 61q0 -29 -21 -50t-50 -21t-50 21t-21 50t21 50t50 21t50 -21t21 -50z" />
    <glyph glyph-name="semicolon" unicode=";" horiz-adv-x="292" 
d="M230 349q0 -29 -21 -50t-50 -21t-50 21t-21 50t21 50t50 21t50 -21t21 -50zM159 129q31 0 51 -24.5t19 -65t-28 -93t-90 -109.5l-45 40q25 27 38.5 49t17.5 40t0 32.5t-14 26.5q-12 15 -13.5 33t5.5 34t22 26.5t37 10.5z" />
    <glyph glyph-name="less" unicode="&#x3c;" 
d="M386 13l-318 289l317 288l69 -70l-249 -217l250 -217z" />
    <glyph glyph-name="equal" unicode="=" 
d="M55 343v87h440v-87h-440zM55 164v87h440v-87h-440z" />
    <glyph glyph-name="greater" unicode="&#x3e;" 
d="M165 13l-69 70l249 218l-250 216l69 73l318 -288z" />
    <glyph glyph-name="question" unicode="?" horiz-adv-x="448" 
d="M394 515q0 -42 -14.5 -71t-36 -52.5t-44.5 -43.5t-39.5 -43.5t-23 -54t6.5 -73.5h-104q-16 48 -12 83.5t19 62.5t37.5 48t43 41t35 41.5t14.5 49.5q0 48 -53 78.5t-147 34.5l14 97q75 -2 132 -19.5t95.5 -44.5t57.5 -62t19 -72zM260 57q0 -29 -19.5 -48t-48.5 -19
t-48.5 19t-19.5 48q0 28 19.5 47t48.5 19t48.5 -19t19.5 -47z" />
    <glyph glyph-name="at" unicode="@" horiz-adv-x="975" 
d="M882 409q0 -68 -17.5 -120.5t-49 -88t-74 -53.5t-92.5 -18q-29 0 -50 8.5t-33.5 23t-18 33t-3.5 39.5h-3q-7 -16 -21 -34t-33 -33.5t-42.5 -26t-49.5 -10.5q-48 0 -73.5 35t-25.5 104q0 55 14 104t42.5 85.5t71.5 57.5t101 21q35 0 67.5 -5t55.5 -12l-37 -206
q-10 -53 3.5 -75.5t48.5 -22.5q52 0 87.5 46.5t35.5 142.5q0 46 -14.5 90t-46.5 78.5t-83.5 55.5t-124.5 21q-70 0 -131 -26t-106.5 -73t-72 -112.5t-26.5 -144.5q0 -67 18.5 -120.5t56 -91t93 -57.5t130.5 -20q44 0 86.5 7t84.5 20l16 -84q-48 -16 -101.5 -23.5t-98.5 -7.5
q-92 0 -163.5 25.5t-120.5 73t-74 115t-25 151.5q0 99 34.5 182.5t94.5 143.5t140.5 94t171.5 34q90 0 157 -26t112 -71t67 -104t22 -125zM553 456q-20 7 -52 7q-30 0 -52.5 -17.5t-37.5 -44t-22 -57.5t-7 -58q0 -71 38 -71q33 0 68.5 46.5t55.5 146.5z" />
    <glyph glyph-name="A" unicode="A" horiz-adv-x="620" 
d="M493 0l-52 149h-273l-52 -149h-110l242 675h121l245 -675h-121zM333 459q-8 25 -15.5 47.5t-12.5 44.5h-2q-10 -42 -27 -91l-80 -224h217z" />
    <glyph glyph-name="B" unicode="B" horiz-adv-x="574" 
d="M528 204q0 -33 -12.5 -69.5t-42.5 -67t-81 -50.5t-129 -20q-31 0 -79.5 1t-105.5 2v675q40 1 94 2t116 1q109 0 164.5 -43t55.5 -121q0 -52 -28.5 -93t-81.5 -61v-2q66 -13 98 -57t32 -97zM393 497q0 21 -6 38t-20.5 29.5t-38.5 19.5t-59 7q-22 0 -42 -0.5t-40 -1.5v-200
q14 -1 27.5 -1h30.5q76 0 112 29t36 80zM412 202q0 29 -12.5 49t-34 32.5t-51.5 18t-66 5.5h-12h-17t-17.5 -0.5t-14.5 -0.5v-215q28 -5 80 -5q75 0 110 32.5t35 83.5z" />
    <glyph glyph-name="C" unicode="C" horiz-adv-x="575" 
d="M533 26q-38 -16 -85 -25t-96 -9q-85 0 -144 25.5t-95.5 70t-53 104t-16.5 127.5q0 79 20 145.5t61.5 114.5t104 75t147.5 27q38 0 76.5 -5t73.5 -16l-16 -100q-70 25 -143 25q-53 0 -91.5 -19t-64 -52.5t-37.5 -79t-12 -97.5q0 -118 51.5 -182.5t162.5 -64.5q35 0 72.5 9
t66.5 23l18 -96v0z" />
    <glyph glyph-name="D" unicode="D" horiz-adv-x="673" 
d="M631 347q0 -87 -27.5 -152.5t-77 -110t-118.5 -66.5t-151 -22q-52 0 -95.5 1.5t-83.5 2.5v674q40 1 95 2.5t114 1.5q80 0 143.5 -19t108 -59t68.5 -102.5t24 -150.5zM515 339q0 120 -56 184.5t-180 64.5q-25 0 -49.5 -0.5t-42.5 -2.5v-491q17 -2 39 -3.5t42 -1.5
q54 0 99.5 14.5t78.5 45.5t51 78t18 112z" />
    <glyph glyph-name="E" unicode="E" horiz-adv-x="498" 
d="M78 0v675h356v-91h-247v-192h235v-89h-235v-210h247v-93h-356z" />
    <glyph glyph-name="F" unicode="F" horiz-adv-x="467" 
d="M187 583v-198h230v-89h-230v-296h-109v675h352v-92h-243z" />
    <glyph glyph-name="G" unicode="G" horiz-adv-x="679" 
d="M604 31q-51 -20 -109.5 -30.5t-116.5 -10.5q-78 0 -141 23t-106.5 65.5t-67 104.5t-23.5 140t25.5 144.5t73 114.5t115.5 75t154 27q51 0 99 -7.5t90 -20.5l-23 -100q-40 16 -83 24.5t-91 8.5q-51 0 -95.5 -16.5t-77 -48.5t-51.5 -79.5t-19 -110.5q0 -118 62.5 -182.5
t171.5 -64.5q29 0 55 4t49 12v245h109v-317v0z" />
    <glyph glyph-name="H" unicode="H" horiz-adv-x="693" 
d="M506 0v303h-319v-303h-109v675h109v-279h319v279h108v-675h-108z" />
    <glyph glyph-name="I" unicode="I" horiz-adv-x="266" 
d="M78 0v675h109v-675h-109z" />
    <glyph glyph-name="J" unicode="J" horiz-adv-x="332" 
d="M254 182q0 -42 -9 -77t-29.5 -60t-54 -39t-82.5 -14q-24 0 -43 2.5t-35 5.5v95q13 -5 30 -8t35 -3q19 0 34 4.5t25 16t15 31.5t5 51v488h109v-493v0z" />
    <glyph glyph-name="K" unicode="K" horiz-adv-x="590" 
d="M432 0l-245 330v-330h-109v675h109v-313l246 313h134l-268 -326l278 -349h-145z" />
    <glyph glyph-name="L" unicode="L" horiz-adv-x="427" 
d="M78 0v675h109v-580h232v-95h-341z" />
    <glyph glyph-name="M" unicode="M" horiz-adv-x="886" 
d="M730 0l-53 359q-8 51 -12.5 91.5t-8.5 73.5h-2q-6 -29 -14 -61.5t-21 -70.5l-127 -392h-113l-121 365q-28 83 -43 159h-2q-3 -44 -8 -85.5t-10 -89.5l-43 -349h-111l101 675h130l130 -390q9 -29 19 -64.5t19 -73.5h1q9 38 17.5 68.5t20.5 65.5l132 394h131l103 -675h-115
z" />
    <glyph glyph-name="N" unicode="N" horiz-adv-x="704" 
d="M484 0l-231 384q-23 37 -41 72.5t-34 69.5q1 -25 2.5 -61t2 -77t1 -83t0.5 -78v-227h-106v675h143l223 -368q23 -38 43 -77t39 -76q-2 29 -3 69t-2 83.5t-1.5 87.5t-0.5 81v200h106v-675h-141z" />
    <glyph glyph-name="O" unicode="O" horiz-adv-x="704" 
d="M666 346q0 -84 -25.5 -150t-69.5 -112t-103 -70t-126 -24q-77 0 -134 24t-95 68.5t-56.5 107t-18.5 140.5q0 84 25.5 150t69.5 111.5t103 69.5t126 24q68 0 124 -21t96 -63.5t62 -106t22 -148.5zM550 335q0 123 -51.5 188.5t-146.5 65.5q-39 0 -75 -15.5t-63 -46.5
t-43.5 -77t-16.5 -107q0 -57 12 -104.5t36 -81t61 -52t87 -18.5q37 0 73 15t64.5 46t45.5 77.5t17 109.5z" />
    <glyph glyph-name="P" unicode="P" horiz-adv-x="527" 
d="M499 476q0 -49 -19 -91t-53.5 -72.5t-82.5 -48t-107 -17.5h-24t-26 2v-249h-109v675q39 2 82 3t91 1q121 0 184.5 -54.5t63.5 -148.5zM386 467q0 58 -34.5 90.5t-108.5 32.5h-29t-27 -2v-247q11 -2 23.5 -3t24.5 -1q69 1 110 35.5t41 94.5z" />
    <glyph glyph-name="Q" unicode="Q" horiz-adv-x="703" 
d="M666 346q0 -84 -25.5 -150t-69.5 -112t-103 -70t-126 -24q-77 0 -134 24t-95 68.5t-56.5 107t-18.5 140.5q0 84 25.5 150t69.5 111.5t103 69.5t126 24q68 0 124 -21t96 -63.5t62 -106t22 -148.5zM702 -193q-67 -10 -115.5 -4t-91.5 16t-85.5 17t-97.5 0v97q63 7 109 0.5
t88 -16t87 -16t106 1.5v-96zM550 335q0 123 -51.5 188.5t-146.5 65.5q-39 0 -75 -15.5t-63 -46.5t-43.5 -77t-16.5 -107q0 -57 12 -104.5t36 -81t61 -52t87 -18.5q37 0 73 15t64.5 46t45.5 77.5t17 109.5z" />
    <glyph glyph-name="R" unicode="R" horiz-adv-x="559" 
d="M402 0l-203 292h-12v-292h-109v675q37 2 80.5 3t100.5 1q52 0 95.5 -10t75 -31.5t48.5 -56.5t17 -85q0 -41 -14.5 -73.5t-39.5 -57t-58.5 -39.5t-71.5 -19q14 -18 29 -36.5t27 -35.5l172 -235h-137zM381 484q0 56 -34 81t-103 25q-16 0 -30.5 -0.5t-26.5 -1.5v-214
q8 -1 21.5 -1.5t31.5 -0.5q66 0 103.5 30.5t37.5 81.5z" />
    <glyph glyph-name="S" unicode="S" horiz-adv-x="503" 
d="M460 202q0 -46 -18 -85t-51.5 -67t-80.5 -44t-104 -16q-44 0 -82 5t-70 14l12 104q33 -13 69.5 -20.5t74.5 -7.5q27 0 51 5.5t42 18t28.5 32t10.5 47.5q0 35 -22 56t-55 36.5t-71 29t-71 35t-55 55t-22 88.5q0 43 16 79.5t47.5 62.5t76.5 40.5t104 14.5q29 0 61.5 -3.5
t60.5 -9.5l-11 -96q-27 9 -56.5 14t-59.5 5q-64 0 -94 -26t-30 -68q0 -34 22 -54.5t55.5 -36t72 -30t72 -36.5t55.5 -55.5t22 -86.5z" />
    <glyph glyph-name="T" unicode="T" horiz-adv-x="514" 
d="M311 583v-583h-109v583h-185v92h480v-92h-186z" />
    <glyph glyph-name="U" unicode="U" horiz-adv-x="687" 
d="M609 260q0 -136 -70 -203t-204 -67q-80 0 -130 20t-78 53.5t-38.5 76.5t-10.5 90v445h109v-437q0 -34 6.5 -63t24 -50t47.5 -33t77 -12q41 0 71.5 9t50 29.5t29 53.5t9.5 80v423h107v-415v0z" />
    <glyph glyph-name="V" unicode="V" horiz-adv-x="622" 
d="M371 0h-124l-240 675h120l142 -416q11 -29 22 -65.5t20 -69.5h1q9 34 20.5 70.5t24.5 71.5l145 409h112z" />
    <glyph glyph-name="W" unicode="W" horiz-adv-x="952" 
d="M747 0h-134l-115 417q-9 31 -15 63t-11 64h-1q-7 -61 -24 -125l-114 -419h-128l-175 675h116l104 -410q9 -34 15 -66.5t11 -66.5h1q5 33 11.5 65t15.5 63l115 415h119l118 -416q8 -27 15 -59.5t12 -64.5h1q5 32 10.5 61t13.5 57l105 422h109z" />
    <glyph glyph-name="X" unicode="X" horiz-adv-x="612" 
d="M461 0l-160 265l-159 -265h-128l219 347l-206 328h126l150 -247l148 247h123l-202 -326l226 -349h-137z" />
    <glyph glyph-name="Y" unicode="Y" horiz-adv-x="548" 
d="M326 241v-241h-109v241l-211 434h119l100 -213q27 -60 48 -114h2q11 30 25.5 62t30.5 64l95 201h115z" />
    <glyph glyph-name="Z" unicode="Z" horiz-adv-x="538" 
d="M45 0v83l266 423q12 20 24 37.5t26 35.5q-22 -1 -53.5 -1h-83.5h-169v97h435v-86l-280 -437q-8 -14 -16.5 -27t-18.5 -27q14 2 53.5 2h104.5h161v-100h-449z" />
    <glyph glyph-name="bracketleft" unicode="[" horiz-adv-x="324" 
d="M79 -201v975h208v-84h-108v-806h108v-85h-208z" />
    <glyph glyph-name="backslash" unicode="\" horiz-adv-x="459" 
d="M359 -161l-350 918h104l351 -918h-105z" />
    <glyph glyph-name="bracketright" unicode="]" horiz-adv-x="324" 
d="M37 -201v85h108v806h-108v84h208v-975h-208z" />
    <glyph glyph-name="asciicircum" unicode="^" 
d="M403 340l-139 257l-132 -257l-72 38l165 297h84l172 -295z" />
    <glyph glyph-name="underscore" unicode="_" 
d="M0 -248v86h550v-86h-550z" />
    <glyph glyph-name="grave" unicode="`" horiz-adv-x="371" 
d="M253 566l-164 111l54 71l153 -125z" />
    <glyph glyph-name="a" unicode="a" horiz-adv-x="523" 
d="M343 0q0 24 1 48t4 44l-1 1q-18 -45 -61.5 -74t-103.5 -29q-64 0 -101.5 38.5t-37.5 99.5q0 84 78 128.5t215 44.5v29q0 46 -22.5 70t-81.5 24q-35 0 -73.5 -10t-68.5 -26l-21 86q38 14 85.5 23.5t95.5 9.5q57 0 94 -12t59 -33.5t31 -52t9 -67.5v-206q0 -32 0.5 -68
t2.5 -68h-103zM336 229q-56 0 -92.5 -7t-58.5 -19t-30.5 -28t-8.5 -34q0 -29 18 -48t50 -19q27 0 49.5 12t38.5 32t25 45t9 52v14z" />
    <glyph glyph-name="b" unicode="b" horiz-adv-x="558" 
d="M519 273q0 -65 -18 -116.5t-52 -88.5t-83 -56.5t-111 -19.5q-53 0 -94.5 5t-82.5 16v717h107v-229q0 -22 -2 -48.5t-7 -46.5h2q20 47 61.5 74t96.5 27q89 0 136 -60.5t47 -173.5zM406 263q0 75 -23.5 115t-74.5 40q-30 0 -53 -16t-38.5 -41t-23.5 -57t-8 -63v-154
q31 -10 78 -10q32 0 58.5 10t45 32.5t29 58t10.5 85.5z" />
    <glyph glyph-name="c" unicode="c" horiz-adv-x="431" 
d="M403 17q-31 -13 -68.5 -19t-75.5 -6q-48 0 -88.5 12.5t-70 41t-46 74.5t-16.5 112q0 59 15 109t46 86.5t77.5 57t108.5 20.5q32 0 61.5 -4.5t54.5 -14.5l-18 -91q-23 9 -49.5 15t-54.5 6q-63 0 -96 -47.5t-33 -124.5q0 -34 6.5 -63.5t21.5 -51t40 -33.5t62 -12
q29 0 56.5 5.5t50.5 16.5l16 -89v0z" />
    <glyph glyph-name="d" unicode="d" horiz-adv-x="557" 
d="M378 0q0 20 1.5 46t5.5 47h-2q-20 -46 -62 -74.5t-100 -28.5q-92 0 -137.5 63t-45.5 171q0 64 18 116t51.5 88.5t82 56.5t108.5 20q18 0 36.5 -1t38.5 -3v229h106v-730h-101zM373 411q-41 9 -79 9q-64 0 -103.5 -43t-39.5 -143q0 -75 24 -115.5t75 -40.5q30 0 52.5 16
t38.5 41.5t24 57.5t8 64v154z" />
    <glyph glyph-name="e" unicode="e" horiz-adv-x="511" 
d="M468 292q0 -21 -3 -52h-317q-2 -85 35 -124.5t112 -39.5q36 0 72.5 7.5t70.5 22.5l14 -84q-39 -16 -84 -24t-92 -8q-115 0 -176.5 61.5t-61.5 193.5q0 56 15 104t44 83t71.5 55t96.5 20q53 0 91.5 -17t63 -46.5t36.5 -68.5t12 -83zM361 314q2 54 -25 84t-75 30
q-45 0 -74.5 -30.5t-36.5 -83.5h211z" />
    <glyph glyph-name="f" unicode="f" horiz-adv-x="352" 
d="M370 640q-17 5 -34 7.5t-34 2.5q-48 0 -70.5 -27t-22.5 -86v-40h129v-83h-129v-414h-106v414h-95v83h95v38q0 202 194 202q42 0 81 -9z" />
    <glyph glyph-name="g" unicode="g" horiz-adv-x="543" 
d="M515 -60q0 -40 -19 -75.5t-54.5 -61.5t-84.5 -41.5t-109 -15.5q-98 0 -154.5 38t-56.5 111q0 41 24.5 75.5t56.5 52.5q-23 10 -36 29.5t-13 45.5q0 27 15.5 50.5t41.5 35.5q-35 20 -54.5 53.5t-19.5 82.5q0 37 14 71t41 60t67 41t93 15q22 0 38.5 -2.5t36.5 -7.5h169v-84
h-76q33 -28 33 -79q0 -39 -13 -72t-39.5 -57t-66 -37.5t-92.5 -13.5q-14 0 -24.5 1.5t-22.5 4.5q-14 -7 -21.5 -17t-7.5 -20q0 -20 18.5 -27t63.5 -9l84 -3q81 -3 124.5 -39t43.5 -105zM365 328q0 46 -26.5 73t-76.5 27q-51 0 -78.5 -28.5t-27.5 -71.5q0 -47 26.5 -73
t77.5 -26q49 0 77 26t28 73zM409 -75q0 32 -22 52t-70 22l-91 3h-27q-26 -18 -41 -40t-15 -48q0 -40 34 -62.5t88 -22.5q70 0 107 27.5t37 68.5z" />
    <glyph glyph-name="h" unicode="h" horiz-adv-x="573" 
d="M389 0v319q0 47 -15.5 73t-58.5 26q-28 0 -52 -14t-41 -38t-27 -57t-10 -70v-239h-107v730h107v-226q0 -23 -2 -51t-7 -49l2 -1q22 48 65 76t104 28q42 0 70.5 -12.5t46 -34.5t24.5 -50.5t7 -61.5v-348h-106z" />
    <glyph glyph-name="i" unicode="i" horiz-adv-x="263" 
d="M200 652q0 -28 -20 -47.5t-48 -19.5q-29 0 -49 19t-20 48q0 28 20 47.5t49 19.5q28 0 48 -19.5t20 -47.5zM78 0v497h107v-497h-107z" />
    <glyph glyph-name="j" unicode="j" horiz-adv-x="268" 
d="M205 652q0 -28 -19.5 -47.5t-48.5 -19.5t-49 19t-20 48q0 28 20 47.5t49 19.5t48.5 -19.5t19.5 -47.5zM190 -47q0 -50 -9 -88t-30 -64t-56 -39t-86 -13q-17 0 -35.5 2t-33.5 7l7 92q30 -11 62 -11q43 0 59 22.5t16 81.5v554h106v-544z" />
    <glyph glyph-name="k" unicode="k" horiz-adv-x="507" 
d="M355 0l-170 252v-252h-107v730h107v-446l161 213h131l-184 -227l198 -270h-136z" />
    <glyph glyph-name="l" unicode="l" horiz-adv-x="263" 
d="M78 0v730h107v-730h-107z" />
    <glyph glyph-name="m" unicode="m" horiz-adv-x="873" 
d="M689 0v317q0 46 -14.5 73.5t-57.5 27.5q-24 0 -47 -13t-41 -36.5t-29 -57t-11 -74.5v-237h-105v317q0 21 -3 39.5t-10.5 32t-22 21.5t-36.5 8q-26 0 -49 -13.5t-40 -37.5t-27.5 -57.5t-10.5 -72.5v-237h-107v497h102q0 -20 -1.5 -47.5t-5.5 -50.5l2 -1q22 50 66 79.5
t102 29.5q37 0 62 -10.5t41 -26.5t24 -35t11 -35q8 18 22 36.5t35 34.5t48 26t61 10q72 0 110 -39.5t38 -124.5v-343h-106z" />
    <glyph glyph-name="n" unicode="n" horiz-adv-x="573" 
d="M389 0v319q0 47 -15.5 73t-58.5 26q-28 0 -52 -14t-41 -38t-27 -57t-10 -70v-239h-107v497h102q0 -20 -1.5 -48.5t-5.5 -49.5h1q22 48 66 78t107 30q42 0 70.5 -12.5t46 -34.5t24.5 -50.5t7 -61.5v-348h-106z" />
    <glyph glyph-name="o" unicode="o" horiz-adv-x="549" 
d="M511 258q0 -57 -18 -106t-50.5 -85t-78 -56.5t-100.5 -20.5q-52 0 -94 15t-72 45.5t-46 78t-16 113.5q0 56 17.5 104.5t50 84t78 56t102.5 20.5q50 0 91.5 -14.5t71.5 -44.5t47 -77t17 -113zM401 251q0 80 -31 123t-95 43q-24 0 -47 -9.5t-41 -29.5t-29 -51t-11 -74
q0 -85 32 -128t95 -43q26 0 49 10t40.5 31t27.5 53t10 75z" />
    <glyph glyph-name="p" unicode="p" horiz-adv-x="558" 
d="M519 273q0 -132 -67 -206t-192 -74q-21 0 -38 1t-37 5v-243h-107v741h101q0 -20 -1 -46.5t-5 -46.5h2q21 48 62.5 75.5t98.5 27.5q89 0 136 -60.5t47 -173.5zM406 263q0 75 -23.5 115.5t-74.5 40.5q-30 0 -53 -16t-38.5 -41.5t-23.5 -57.5t-8 -64v-153q33 -10 78 -10
q32 0 58.5 10t45 32.5t29 58t10.5 85.5z" />
    <glyph glyph-name="q" unicode="q" horiz-adv-x="558" 
d="M374 -244v243q0 19 1 44t6 48l-2 1q-20 -48 -61 -75t-94 -27q-89 0 -136.5 58.5t-47.5 174.5q0 64 18 116.5t52 89t83.5 56.5t112.5 20q48 0 91.5 -3.5t82.5 -10.5v-735h-106zM374 412q-39 9 -79 9q-64 0 -103.5 -43.5t-39.5 -143.5q0 -75 23.5 -115.5t74.5 -40.5
q30 0 53 16t39 42t24 58t8 65v153z" />
    <glyph glyph-name="r" unicode="r" horiz-adv-x="355" 
d="M332 401q-75 14 -111 -36.5t-36 -162.5v-202h-107v497h102q0 -21 -2.5 -51t-7.5 -59h2q8 25 22 48t34 40t47 26t62 5z" />
    <glyph glyph-name="s" unicode="s" horiz-adv-x="421" 
d="M376 152q0 -35 -15 -65t-42.5 -51.5t-67.5 -33.5t-89 -12q-29 0 -58 3.5t-52 10.5l8 91q23 -9 51.5 -14t57.5 -5q42 0 68.5 17.5t26.5 47.5q0 25 -16 39t-40.5 23t-52.5 17.5t-52.5 23.5t-40.5 40.5t-16 68.5q0 33 12.5 61t37.5 48.5t63.5 32.5t89.5 12q23 0 47.5 -2.5
t46.5 -7.5l-6 -86q-45 14 -94 14q-45 0 -66 -16.5t-21 -45.5q0 -24 16.5 -38t40.5 -23.5t53 -18.5t53 -24t40.5 -40t16.5 -67z" />
    <glyph glyph-name="t" unicode="t" horiz-adv-x="373" 
d="M341 3q-23 -5 -51 -8.5t-53 -3.5q-40 0 -66.5 8t-42.5 26t-22.5 47t-6.5 71v271h-95v83h95v158l107 29v-187h130v-83h-130v-238q0 -28 3 -46t10.5 -28.5t20 -15t31.5 -4.5q17 0 32 2t29 5l9 -86v0z" />
    <glyph glyph-name="u" unicode="u" horiz-adv-x="573" 
d="M393 0q0 20 1.5 48.5t5.5 49.5h-1q-22 -48 -66 -78t-107 -30q-42 0 -70.5 12.5t-46 34.5t-24.5 50.5t-7 61.5v348h106v-319q0 -47 15.5 -73t58.5 -26q28 0 52 14t41 38t27 56.5t10 70.5v239h107v-497h-102z" />
    <glyph glyph-name="v" unicode="v" horiz-adv-x="495" 
d="M301 0h-109l-186 497h118l93 -263q18 -52 32 -102h1q6 23 13.5 48.5t15.5 49.5l95 267h115z" />
    <glyph glyph-name="w" unicode="w" horiz-adv-x="794" 
d="M622 0h-118l-86 260q-8 25 -15 50.5t-14 54.5h-1q-8 -33 -16 -63t-18 -62l-75 -240h-113l-153 497h117l66 -231q10 -35 19.5 -70t17.5 -69h1q8 37 16.5 70.5t18.5 65.5l74 234h108l75 -230q14 -45 22.5 -76.5t16.5 -63.5h1q8 35 16 66.5t19 68.5l69 235h111z" />
    <glyph glyph-name="x" unicode="x" horiz-adv-x="523" 
d="M370 0l-112 180l-113 -180h-129l178 250l-168 247h129l111 -177l113 177h119l-164 -245l172 -252h-136z" />
    <glyph glyph-name="y" unicode="y" horiz-adv-x="490" 
d="M283 -35q-23 -62 -48 -104t-53.5 -67t-63 -35.5t-76.5 -10.5q-14 0 -32 2t-31 4l12 93q13 -4 29.5 -6t31.5 -2q18 0 34.5 5t32.5 17.5t30.5 34.5t26.5 55l18 49l-186 497h120l81 -227q12 -33 21.5 -65.5t17.5 -64.5h1q8 30 21.5 73.5t27.5 81.5l71 202h115z" />
    <glyph glyph-name="z" unicode="z" horiz-adv-x="449" 
d="M47 0v76l221 327q-19 -1 -50.5 -1.5t-69.5 -0.5h-96v96h343v-75l-218 -326q9 0 24 0.5t32.5 1t35.5 0.5h33h97v-98h-352z" />
    <glyph glyph-name="braceleft" unicode="{" horiz-adv-x="350" 
d="M299 -201q-91 0 -129.5 50.5t-38.5 156.5v157q0 61 -24 84.5t-79 26.5v82q28 1 47.5 6.5t32 17.5t18 32.5t5.5 51.5v104q0 48 8.5 86t28.5 65t52 41t79 14h19v-84q-25 0 -42 -5.5t-27 -19t-14.5 -36.5t-4.5 -59v-103q0 -72 -23.5 -107.5t-68.5 -43.5v-1q44 -7 68 -45
t24 -110v-156q0 -36 4.5 -59t14.5 -36.5t27 -19t42 -5.5v-85h-19z" />
    <glyph glyph-name="bar" unicode="|" horiz-adv-x="286" 
d="M99 -244v1000h85v-1000h-85z" />
    <glyph glyph-name="braceright" unicode="}" horiz-adv-x="348" 
d="M327 274q-54 -3 -78.5 -26.5t-24.5 -84.5v-157q0 -106 -38.5 -156.5t-129.5 -50.5h-19v85q25 0 42 5.5t27 19t14.5 36.5t4.5 59v156q0 72 24 110t68 45v1q-45 6 -68.5 42t-23.5 106v106q0 36 -4.5 59t-14.5 36.5t-27 19t-42 5.5v84h19q47 0 79 -14t52 -41t28.5 -65
t8.5 -86v-101q0 -32 5.5 -53t18 -33.5t32 -18t47.5 -6.5v-82v0z" />
    <glyph glyph-name="asciitilde" unicode="~" 
d="M502 565q0 -69 -37.5 -111t-103.5 -42q-42 0 -66 17t-41 37t-32 37t-39 17q-29 0 -41.5 -22.5t-13.5 -62.5h-79v13q0 69 37.5 111t103.5 42q42 0 66 -17t41 -37t32 -37t39 -17q29 0 41.5 23t13.5 63h79v-14v0z" />
    <glyph glyph-name="Adieresis" unicode="&#xc4;" horiz-adv-x="620" 
d="M468 783q0 -23 -16 -39t-39 -16t-39.5 16t-16.5 39t16.5 39.5t39.5 16.5t39 -16.5t16 -39.5zM253 783q0 -23 -16 -39t-39 -16t-39 16t-16 39t16 39.5t39 16.5t39 -16.5t16 -39.5zM493 0l-52 149h-273l-52 -149h-110l242 675h121l245 -675h-121zM333 459q-8 25 -15.5 47.5
t-12.5 44.5h-2q-10 -42 -27 -91l-80 -224h217z" />
    <glyph glyph-name="Aring" unicode="&#xc5;" horiz-adv-x="620" 
d="M493 0l-52 149h-273l-52 -149h-110l230 642q-21 13 -33.5 34.5t-12.5 50.5q0 25 9.5 46t26 36.5t38 24t46.5 8.5t47 -8.5t38 -24t25 -36.5t9 -46q0 -27 -13 -50t-35 -36l233 -641h-121zM363 727q0 23 -15 39t-38 16t-38.5 -16t-15.5 -39t15.5 -39t38.5 -16t38 16t15 39z
M336 449q-11 26 -18 51t-13 50h-2q-5 -24 -13 -50.5t-18 -53.5l-76 -210h216z" />
    <glyph glyph-name="Ccedilla" unicode="&#xc7;" horiz-adv-x="575" 
d="M533 26q-38 -16 -85 -25t-96 -9q-85 0 -144 25.5t-95.5 70t-53 104t-16.5 127.5q0 79 20 145.5t61.5 114.5t104 75t147.5 27q38 0 76.5 -5t73.5 -16l-16 -100q-70 25 -143 25q-53 0 -91.5 -19t-64 -52.5t-37.5 -79t-12 -97.5q0 -118 51.5 -182.5t162.5 -64.5q35 0 72.5 9
t66.5 23l18 -96v0zM360 -40q39 -52 30.5 -100t-51.5 -95h-83q38 46 44 83t-30 81l90 31v0z" />
    <glyph glyph-name="Eacute" unicode="&#xc9;" horiz-adv-x="498" 
d="M209 721l-19 60l193 74l27 -79zM78 0v675h356v-91h-247v-192h235v-89h-235v-210h247v-93h-356z" />
    <glyph glyph-name="Ntilde" unicode="&#xd1;" horiz-adv-x="704" 
d="M524 809q-43 -77 -118 -77q-26 0 -43.5 8t-31.5 17t-26.5 17t-28.5 8q-34 0 -60 -44l-54 37q21 38 50.5 58t67.5 20q25 0 43 -8t32 -17t26.5 -17t28.5 -8q34 0 60 44zM484 0l-231 384q-23 37 -41 72.5t-34 69.5q1 -25 2.5 -61t2 -77t1 -83t0.5 -78v-227h-106v675h143
l223 -368q23 -38 43 -77t39 -76q-2 29 -3 69t-2 83.5t-1.5 87.5t-0.5 81v200h106v-675h-141z" />
    <glyph glyph-name="Odieresis" unicode="&#xd6;" horiz-adv-x="704" 
d="M516 783q0 -23 -16 -39t-39 -16t-39.5 16t-16.5 39t16.5 39.5t39.5 16.5t39 -16.5t16 -39.5zM301 783q0 -23 -16 -39t-39 -16t-39 16t-16 39t16 39.5t39 16.5t39 -16.5t16 -39.5zM666 346q0 -84 -25.5 -150t-69.5 -112t-103 -70t-126 -24q-77 0 -134 24t-95 68.5
t-56.5 107t-18.5 140.5q0 84 25.5 150t69.5 111.5t103 69.5t126 24q68 0 124 -21t96 -63.5t62 -106t22 -148.5zM550 335q0 123 -51.5 188.5t-146.5 65.5q-39 0 -75 -15.5t-63 -46.5t-43.5 -77t-16.5 -107q0 -57 12 -104.5t36 -81t61 -52t87 -18.5q37 0 73 15t64.5 46
t45.5 77.5t17 109.5z" />
    <glyph glyph-name="Udieresis" unicode="&#xdc;" horiz-adv-x="687" 
d="M507 783q0 -23 -16 -39t-39 -16t-39 16t-16 39t16 39.5t39 16.5t39 -16.5t16 -39.5zM293 783q0 -23 -16.5 -39t-39.5 -16t-39 16t-16 39t16 39.5t39 16.5t39.5 -16.5t16.5 -39.5zM609 260q0 -136 -70 -203t-204 -67q-80 0 -130 20t-78 53.5t-38.5 76.5t-10.5 90v445h109
v-437q0 -34 6.5 -63t24 -50t47.5 -33t77 -12q41 0 71.5 9t50 29.5t29 53.5t9.5 80v423h107v-415z" />
    <glyph glyph-name="aacute" unicode="&#xe1;" horiz-adv-x="523" 
d="M343 0q0 24 1 48t4 44l-1 1q-18 -45 -61.5 -74t-103.5 -29q-64 0 -101.5 38.5t-37.5 99.5q0 84 78 128.5t215 44.5v29q0 46 -22.5 70t-81.5 24q-35 0 -73.5 -10t-68.5 -26l-21 86q38 14 85.5 23.5t95.5 9.5q57 0 94 -12t59 -33.5t31 -52t9 -67.5v-206q0 -32 0.5 -68
t2.5 -68h-103zM336 229q-56 0 -92.5 -7t-58.5 -19t-30.5 -28t-8.5 -34q0 -29 18 -48t50 -19q27 0 49.5 12t38.5 32t25 45t9 52v14zM228 566l-43 57l153 125l54 -71z" />
    <glyph glyph-name="agrave" unicode="&#xe0;" horiz-adv-x="523" 
d="M343 0q0 24 1 48t4 44l-1 1q-18 -45 -61.5 -74t-103.5 -29q-64 0 -101.5 38.5t-37.5 99.5q0 84 78 128.5t215 44.5v29q0 46 -22.5 70t-81.5 24q-35 0 -73.5 -10t-68.5 -26l-21 86q38 14 85.5 23.5t95.5 9.5q57 0 94 -12t59 -33.5t31 -52t9 -67.5v-206q0 -32 0.5 -68
t2.5 -68h-103zM336 229q-56 0 -92.5 -7t-58.5 -19t-30.5 -28t-8.5 -34q0 -29 18 -48t50 -19q27 0 49.5 12t38.5 32t25 45t9 52v14zM295 566l-164 111l54 71l153 -125z" />
    <glyph glyph-name="acircumflex" unicode="&#xe2;" horiz-adv-x="523" 
d="M343 0q0 24 1 48t4 44l-1 1q-18 -45 -61.5 -74t-103.5 -29q-64 0 -101.5 38.5t-37.5 99.5q0 84 78 128.5t215 44.5v29q0 46 -22.5 70t-81.5 24q-35 0 -73.5 -10t-68.5 -26l-21 86q38 14 85.5 23.5t95.5 9.5q57 0 94 -12t59 -33.5t31 -52t9 -67.5v-206q0 -32 0.5 -68
t2.5 -68h-103zM336 229q-56 0 -92.5 -7t-58.5 -19t-30.5 -28t-8.5 -34q0 -29 18 -48t50 -19q27 0 49.5 12t38.5 32t25 45t9 52v14zM360 566l-101 83l-102 -83l-43 49l146 133l145 -132z" />
    <glyph glyph-name="adieresis" unicode="&#xe4;" horiz-adv-x="523" 
d="M343 0q0 24 1 48t4 44l-1 1q-18 -45 -61.5 -74t-103.5 -29q-64 0 -101.5 38.5t-37.5 99.5q0 84 78 128.5t215 44.5v29q0 46 -22.5 70t-81.5 24q-35 0 -73.5 -10t-68.5 -26l-21 86q38 14 85.5 23.5t95.5 9.5q57 0 94 -12t59 -33.5t31 -52t9 -67.5v-206q0 -32 0.5 -68
t2.5 -68h-103zM336 229q-56 0 -92.5 -7t-58.5 -19t-30.5 -28t-8.5 -34q0 -29 18 -48t50 -19q27 0 49.5 12t38.5 32t25 45t9 52v14zM417 652q0 -26 -17.5 -43.5t-42.5 -17.5q-26 0 -43.5 17.5t-17.5 43.5q0 25 17.5 42.5t43.5 17.5q25 0 42.5 -17.5t17.5 -42.5zM221 652
q0 -26 -17.5 -43.5t-43.5 -17.5t-43 17.5t-17 43.5q0 25 17 42.5t43 17.5t43.5 -17.5t17.5 -42.5z" />
    <glyph glyph-name="atilde" unicode="&#xe3;" horiz-adv-x="523" 
d="M343 0q0 24 1 48t4 44l-1 1q-18 -45 -61.5 -74t-103.5 -29q-64 0 -101.5 38.5t-37.5 99.5q0 84 78 128.5t215 44.5v29q0 46 -22.5 70t-81.5 24q-35 0 -73.5 -10t-68.5 -26l-21 86q38 14 85.5 23.5t95.5 9.5q57 0 94 -12t59 -33.5t31 -52t9 -67.5v-206q0 -32 0.5 -68
t2.5 -68h-103zM336 229q-56 0 -92.5 -7t-58.5 -19t-30.5 -28t-8.5 -34q0 -29 18 -48t50 -19q27 0 49.5 12t38.5 32t25 45t9 52v14zM430 670q-43 -82 -115 -82q-25 0 -42 8t-30.5 18t-25.5 18t-27 8q-33 0 -58 -46l-52 41q20 40 49 61.5t66 21.5q24 0 41 -8.5t30.5 -18
t26 -18t27.5 -8.5q32 0 58 46l52 -41v0z" />
    <glyph glyph-name="aring" unicode="&#xe5;" horiz-adv-x="523" 
d="M343 0q0 24 1 48t4 44l-1 1q-18 -45 -61.5 -74t-103.5 -29q-64 0 -101.5 38.5t-37.5 99.5q0 84 78 128.5t215 44.5v29q0 46 -22.5 70t-81.5 24q-35 0 -73.5 -10t-68.5 -26l-21 86q38 14 85.5 23.5t95.5 9.5q57 0 94 -12t59 -33.5t31 -52t9 -67.5v-206q0 -32 0.5 -68
t2.5 -68h-103zM336 229q-56 0 -92.5 -7t-58.5 -19t-30.5 -28t-8.5 -34q0 -29 18 -48t50 -19q27 0 49.5 12t38.5 32t25 45t9 52v14zM378 664q0 -24 -9.5 -45t-25.5 -36.5t-38 -24.5t-46 -9q-25 0 -47 8.5t-38 24t-25.5 36.5t-9.5 46t9.5 46t26 36.5t38 24t46.5 8.5t47 -8.5
t38 -24t25 -36.5t9 -46zM312 664q0 23 -15 39t-38 16t-38.5 -16t-15.5 -39t15.5 -39t38.5 -16t38 16t15 39z" />
    <glyph glyph-name="ccedilla" unicode="&#xe7;" horiz-adv-x="431" 
d="M403 17q-31 -13 -68.5 -19t-75.5 -6q-48 0 -88.5 12.5t-70 41t-46 74.5t-16.5 112q0 59 15 109t46 86.5t77.5 57t108.5 20.5q32 0 61.5 -4.5t54.5 -14.5l-18 -91q-23 9 -49.5 15t-54.5 6q-63 0 -96 -47.5t-33 -124.5q0 -34 6.5 -63.5t21.5 -51t40 -33.5t62 -12
q29 0 56.5 5.5t50.5 16.5l16 -89v0zM270 -40q39 -52 30.5 -100t-51.5 -95h-83q38 46 44 83t-30 81l90 31v0z" />
    <glyph glyph-name="eacute" unicode="&#xe9;" horiz-adv-x="511" 
d="M468 292q0 -21 -3 -52h-317q-2 -85 35 -124.5t112 -39.5q36 0 72.5 7.5t70.5 22.5l14 -84q-39 -16 -84 -24t-92 -8q-115 0 -176.5 61.5t-61.5 193.5q0 56 15 104t44 83t71.5 55t96.5 20q53 0 91.5 -17t63 -46.5t36.5 -68.5t12 -83zM361 314q2 54 -25 84t-75 30
q-45 0 -74.5 -30.5t-36.5 -83.5h211zM233 566l-43 57l153 125l54 -71z" />
    <glyph glyph-name="egrave" unicode="&#xe8;" horiz-adv-x="511" 
d="M468 292q0 -21 -3 -52h-317q-2 -85 35 -124.5t112 -39.5q36 0 72.5 7.5t70.5 22.5l14 -84q-39 -16 -84 -24t-92 -8q-115 0 -176.5 61.5t-61.5 193.5q0 56 15 104t44 83t71.5 55t96.5 20q53 0 91.5 -17t63 -46.5t36.5 -68.5t12 -83zM361 314q2 54 -25 84t-75 30
q-45 0 -74.5 -30.5t-36.5 -83.5h211zM300 566l-164 111l54 71l153 -125z" />
    <glyph glyph-name="ecircumflex" unicode="&#xea;" horiz-adv-x="511" 
d="M468 292q0 -21 -3 -52h-317q-2 -85 35 -124.5t112 -39.5q36 0 72.5 7.5t70.5 22.5l14 -84q-39 -16 -84 -24t-92 -8q-115 0 -176.5 61.5t-61.5 193.5q0 56 15 104t44 83t71.5 55t96.5 20q53 0 91.5 -17t63 -46.5t36.5 -68.5t12 -83zM361 314q2 54 -25 84t-75 30
q-45 0 -74.5 -30.5t-36.5 -83.5h211zM362 566l-101 83l-102 -83l-43 49l146 133l145 -132z" />
    <glyph glyph-name="edieresis" unicode="&#xeb;" horiz-adv-x="511" 
d="M468 292q0 -21 -3 -52h-317q-2 -85 35 -124.5t112 -39.5q36 0 72.5 7.5t70.5 22.5l14 -84q-39 -16 -84 -24t-92 -8q-115 0 -176.5 61.5t-61.5 193.5q0 56 15 104t44 83t71.5 55t96.5 20q53 0 91.5 -17t63 -46.5t36.5 -68.5t12 -83zM361 314q2 54 -25 84t-75 30
q-45 0 -74.5 -30.5t-36.5 -83.5h211zM423 652q0 -26 -17.5 -43.5t-42.5 -17.5q-26 0 -43.5 17.5t-17.5 43.5q0 25 17.5 42.5t43.5 17.5q25 0 42.5 -17.5t17.5 -42.5zM227 652q0 -26 -17.5 -43.5t-43.5 -17.5t-43 17.5t-17 43.5q0 25 17 42.5t43 17.5t43.5 -17.5t17.5 -42.5z
" />
    <glyph glyph-name="iacute" unicode="&#xed;" horiz-adv-x="263" 
d="M78 0v497h107v-497h-107zM70 566l-43 57l153 125l54 -71z" />
    <glyph glyph-name="igrave" unicode="&#xec;" horiz-adv-x="263" 
d="M78 0v497h107v-497h-107zM187 566l-164 111l54 71l153 -125z" />
    <glyph glyph-name="icircumflex" unicode="&#xee;" horiz-adv-x="263" 
d="M78 0v497h107v-497h-107zM234 566l-101 83l-102 -83l-43 49l146 133l145 -132z" />
    <glyph glyph-name="idieresis" unicode="&#xef;" horiz-adv-x="263" 
d="M78 0v497h107v-497h-107zM291 652q0 -26 -17.5 -43.5t-42.5 -17.5q-26 0 -43.5 17.5t-17.5 43.5q0 25 17.5 42.5t43.5 17.5q25 0 42.5 -17.5t17.5 -42.5zM95 652q0 -26 -17.5 -43.5t-43.5 -17.5t-43 17.5t-17 43.5q0 25 17 42.5t43 17.5t43.5 -17.5t17.5 -42.5z" />
    <glyph glyph-name="ntilde" unicode="&#xf1;" horiz-adv-x="573" 
d="M389 0v319q0 47 -15.5 73t-58.5 26q-28 0 -52 -14t-41 -38t-27 -57t-10 -70v-239h-107v497h102q0 -20 -1.5 -48.5t-5.5 -49.5h1q22 48 66 78t107 30q42 0 70.5 -12.5t46 -34.5t24.5 -50.5t7 -61.5v-348h-106zM465 670q-43 -82 -115 -82q-25 0 -42 8t-30.5 18t-25.5 18
t-27 8q-33 0 -58 -46l-52 41q20 40 49 61.5t66 21.5q24 0 41 -8.5t30.5 -18t26 -18t27.5 -8.5q32 0 58 46l52 -41v0z" />
    <glyph glyph-name="oacute" unicode="&#xf3;" horiz-adv-x="549" 
d="M511 258q0 -57 -18 -106t-50.5 -85t-78 -56.5t-100.5 -20.5q-52 0 -94 15t-72 45.5t-46 78t-16 113.5q0 56 17.5 104.5t50 84t78 56t102.5 20.5q50 0 91.5 -14.5t71.5 -44.5t47 -77t17 -113zM401 251q0 80 -31 123t-95 43q-24 0 -47 -9.5t-41 -29.5t-29 -51t-11 -74
q0 -85 32 -128t95 -43q26 0 49 10t40.5 31t27.5 53t10 75zM247 566l-43 57l153 125l54 -71z" />
    <glyph glyph-name="ograve" unicode="&#xf2;" horiz-adv-x="549" 
d="M511 258q0 -57 -18 -106t-50.5 -85t-78 -56.5t-100.5 -20.5q-52 0 -94 15t-72 45.5t-46 78t-16 113.5q0 56 17.5 104.5t50 84t78 56t102.5 20.5q50 0 91.5 -14.5t71.5 -44.5t47 -77t17 -113zM401 251q0 80 -31 123t-95 43q-24 0 -47 -9.5t-41 -29.5t-29 -51t-11 -74
q0 -85 32 -128t95 -43q26 0 49 10t40.5 31t27.5 53t10 75zM316 566l-164 111l54 71l153 -125z" />
    <glyph glyph-name="ocircumflex" unicode="&#xf4;" horiz-adv-x="549" 
d="M511 258q0 -57 -18 -106t-50.5 -85t-78 -56.5t-100.5 -20.5q-52 0 -94 15t-72 45.5t-46 78t-16 113.5q0 56 17.5 104.5t50 84t78 56t102.5 20.5q50 0 91.5 -14.5t71.5 -44.5t47 -77t17 -113zM401 251q0 80 -31 123t-95 43q-24 0 -47 -9.5t-41 -29.5t-29 -51t-11 -74
q0 -85 32 -128t95 -43q26 0 49 10t40.5 31t27.5 53t10 75zM376 566l-101 83l-102 -83l-43 49l146 133l145 -132z" />
    <glyph glyph-name="odieresis" unicode="&#xf6;" horiz-adv-x="549" 
d="M511 258q0 -57 -18 -106t-50.5 -85t-78 -56.5t-100.5 -20.5q-52 0 -94 15t-72 45.5t-46 78t-16 113.5q0 56 17.5 104.5t50 84t78 56t102.5 20.5q50 0 91.5 -14.5t71.5 -44.5t47 -77t17 -113zM401 251q0 80 -31 123t-95 43q-24 0 -47 -9.5t-41 -29.5t-29 -51t-11 -74
q0 -85 32 -128t95 -43q26 0 49 10t40.5 31t27.5 53t10 75zM434 652q0 -26 -17.5 -43.5t-42.5 -17.5q-26 0 -43.5 17.5t-17.5 43.5q0 25 17.5 42.5t43.5 17.5q25 0 42.5 -17.5t17.5 -42.5zM238 652q0 -26 -17.5 -43.5t-43.5 -17.5t-43 17.5t-17 43.5q0 25 17 42.5t43 17.5
t43.5 -17.5t17.5 -42.5z" />
    <glyph glyph-name="otilde" unicode="&#xf5;" horiz-adv-x="549" 
d="M511 258q0 -57 -18 -106t-50.5 -85t-78 -56.5t-100.5 -20.5q-52 0 -94 15t-72 45.5t-46 78t-16 113.5q0 56 17.5 104.5t50 84t78 56t102.5 20.5q50 0 91.5 -14.5t71.5 -44.5t47 -77t17 -113zM401 251q0 80 -31 123t-95 43q-24 0 -47 -9.5t-41 -29.5t-29 -51t-11 -74
q0 -85 32 -128t95 -43q26 0 49 10t40.5 31t27.5 53t10 75zM444 670q-43 -82 -115 -82q-25 0 -42 8t-30.5 18t-25.5 18t-27 8q-33 0 -58 -46l-52 41q20 40 49 61.5t66 21.5q24 0 41 -8.5t30.5 -18t26 -18t27.5 -8.5q32 0 58 46l52 -41v0z" />
    <glyph glyph-name="uacute" unicode="&#xfa;" horiz-adv-x="573" 
d="M393 0q0 20 1.5 48.5t5.5 49.5h-1q-22 -48 -66 -78t-107 -30q-42 0 -70.5 12.5t-46 34.5t-24.5 50.5t-7 61.5v348h106v-319q0 -47 15.5 -73t58.5 -26q28 0 52 14t41 38t27 56.5t10 70.5v239h107v-497h-102zM284 566l-43 57l153 125l54 -71z" />
    <glyph glyph-name="ugrave" unicode="&#xf9;" horiz-adv-x="573" 
d="M393 0q0 20 1.5 48.5t5.5 49.5h-1q-22 -48 -66 -78t-107 -30q-42 0 -70.5 12.5t-46 34.5t-24.5 50.5t-7 61.5v348h106v-319q0 -47 15.5 -73t58.5 -26q28 0 52 14t41 38t27 56.5t10 70.5v239h107v-497h-102zM298 566l-164 111l54 71l153 -125z" />
    <glyph glyph-name="ucircumflex" unicode="&#xfb;" horiz-adv-x="573" 
d="M393 0q0 20 1.5 48.5t5.5 49.5h-1q-22 -48 -66 -78t-107 -30q-42 0 -70.5 12.5t-46 34.5t-24.5 50.5t-7 61.5v348h106v-319q0 -47 15.5 -73t58.5 -26q28 0 52 14t41 38t27 56.5t10 70.5v239h107v-497h-102zM384 566l-101 83l-102 -83l-43 49l146 133l145 -132z" />
    <glyph glyph-name="udieresis" unicode="&#xfc;" horiz-adv-x="573" 
d="M393 0q0 20 1.5 48.5t5.5 49.5h-1q-22 -48 -66 -78t-107 -30q-42 0 -70.5 12.5t-46 34.5t-24.5 50.5t-7 61.5v348h106v-319q0 -47 15.5 -73t58.5 -26q28 0 52 14t41 38t27 56.5t10 70.5v239h107v-497h-102zM440 652q0 -26 -17.5 -43.5t-42.5 -17.5q-26 0 -43.5 17.5
t-17.5 43.5q0 25 17.5 42.5t43.5 17.5q25 0 42.5 -17.5t17.5 -42.5zM244 652q0 -26 -17.5 -43.5t-43.5 -17.5t-43 17.5t-17 43.5q0 25 17 42.5t43 17.5t43.5 -17.5t17.5 -42.5z" />
    <glyph glyph-name="dagger" unicode="&#x2020;" horiz-adv-x="452" 
d="M269 546l19 -93l-21 -253h-82l-21 253l19 93h-138v83h138l-19 137h124l-19 -137h138v-83h-138z" />
    <glyph glyph-name="degree" unicode="&#xb0;" horiz-adv-x="381" 
d="M328 605q0 -32 -12 -57t-32.5 -42t-46.5 -26t-53 -9q-63 0 -99.5 35t-36.5 96q0 32 12.5 57t32.5 42t45.5 26t51.5 9q36 0 62.5 -10.5t43 -28.5t24.5 -41.5t8 -50.5zM247 605q0 22 -13 42.5t-45 20.5q-26 0 -42.5 -17.5t-16.5 -46.5q0 -31 16 -48t42 -17t42.5 18.5
t16.5 47.5z" />
    <glyph glyph-name="cent" unicode="&#xa2;" 
d="M472 132q-26 -12 -56.5 -20.5t-60.5 -10.5v-101h-82v101q-97 8 -146.5 67t-49.5 160q0 94 51 155t145 79v88h82v-85q26 -2 54.5 -7.5t54.5 -14.5l-21 -88q-23 11 -51 17.5t-58 6.5q-67 0 -106.5 -37.5t-39.5 -109.5q0 -63 35 -102.5t110 -39.5q30 0 59.5 7t53.5 21
l26 -86v0z" />
    <glyph glyph-name="sterling" unicode="&#xa3;" 
d="M71 0v73q43 36 65 71t22 75q0 30 -6 62h-101v83h90q-4 26 -7 51t-3 48q0 54 14.5 91.5t41.5 61t65.5 34t86.5 10.5q25 0 58.5 -4t62.5 -12l-23 -90q-23 8 -50 13.5t-55 5.5q-93 0 -93 -100q0 -26 3.5 -54t7.5 -55h155v-83h-145q3 -14 4 -29t1 -29q0 -42 -16.5 -72.5
t-50.5 -60.5q17 1 36.5 1.5t40.5 0.5h210v-92h-414z" />
    <glyph glyph-name="section" unicode="&#xa7;" horiz-adv-x="524" 
d="M444 240q0 -42 -20.5 -79t-56.5 -64q17 -22 27.5 -47.5t10.5 -56.5q0 -30 -12 -58.5t-37 -51t-64 -36t-93 -13.5q-17 0 -38.5 2.5t-41.5 7.5l7 90q21 -6 39 -9t37 -3q45 0 67 20t22 50q0 25 -16.5 47.5t-41.5 46t-54 49t-54 55t-41.5 65t-16.5 78.5q0 42 20 78.5t57 64.5
q-18 23 -28 48t-10 56q0 32 11 60.5t34.5 50t60.5 34t88 12.5q18 0 39 -2t39 -6l-7 -90q-19 6 -35.5 8.5t-34.5 2.5q-42 0 -61.5 -17t-19.5 -48q0 -24 16.5 -47t41.5 -47.5t54 -50.5t54 -56t41.5 -65.5t16.5 -78.5zM346 226q0 27 -12.5 50.5t-32.5 46.5t-45.5 46.5
t-51.5 50.5q-20 -15 -29 -34.5t-9 -38.5q0 -25 11 -47.5t30 -45.5t45 -47.5t56 -52.5q20 14 29 33t9 39z" />
    <glyph glyph-name="bullet" unicode="&#x2022;" horiz-adv-x="421" 
d="M344 297q0 -27 -10.5 -51.5t-28.5 -42.5t-42.5 -28.5t-51.5 -10.5q-28 0 -52 10.5t-42 28.5t-28.5 42.5t-10.5 51.5t10.5 51.5t28.5 42.5t42 28.5t52 10.5q27 0 51.5 -10.5t42.5 -28.5t28.5 -42.5t10.5 -51.5z" />
    <glyph glyph-name="paragraph" unicode="&#xb6;" horiz-adv-x="585" 
d="M460 591v-687h-165v84h72v687h161v-84h-68zM290 240q-59 0 -102.5 17t-71.5 47t-41.5 70t-13.5 85q0 48 16.5 87.5t47 68t72.5 44.5t93 16v-435z" />
    <glyph glyph-name="germandbls" unicode="&#xdf;" horiz-adv-x="599" 
d="M563 153q0 -36 -14.5 -66t-41 -51.5t-64 -33.5t-83.5 -12q-30 0 -56.5 3.5t-45.5 8.5l7 91q43 -19 91 -19q52 0 74.5 20.5t22.5 46.5q0 24 -14 40.5t-35 30t-45.5 26.5t-45.5 31.5t-35 44.5t-14 65q0 29 9.5 50t23 36.5t30 28t30 26t23 29.5t9.5 38q0 33 -23.5 49.5
t-62.5 16.5q-56 0 -87 -35.5t-31 -114.5v-503h-107v497q0 66 18 111.5t49.5 74t73.5 41t89 12.5q90 0 141 -38.5t51 -102.5q0 -33 -9.5 -55t-23.5 -38t-30.5 -27.5t-30.5 -23t-23.5 -25.5t-9.5 -35q0 -24 14 -40t35 -30t46 -27.5t46 -32t35 -44.5t14 -64z" />
    <glyph glyph-name="registered" unicode="&#xae;" horiz-adv-x="563" 
d="M508 529q0 -46 -18 -87t-49 -71.5t-72.5 -48t-87.5 -17.5q-48 0 -89 17.5t-71.5 47.5t-48 71t-17.5 88t17.5 88t48.5 71.5t72 48t88 17.5q48 0 89 -17.5t72 -47.5t48.5 -71t17.5 -89zM440 528q0 33 -12.5 62.5t-34 51.5t-50.5 35t-62 13t-61.5 -12.5t-50 -34.5t-34 -50.5
t-12.5 -61.5t12.5 -62.5t34 -51.5t50 -35t61.5 -13t62 12.5t50.5 34.5t34 50.5t12.5 61.5zM310 418l-47 90h-5v-90h-54v225h85q42 0 60.5 -16.5t18.5 -44.5q0 -27 -13.5 -43t-36.5 -21q8 -8 18 -28l39 -72h-65zM309 576q0 26 -32 26h-19v-58h12q21 0 30 10t9 22z" />
    <glyph glyph-name="copyright" unicode="&#xa9;" horiz-adv-x="758" 
d="M716 335q0 -70 -26.5 -131.5t-72.5 -107.5t-107.5 -72.5t-131.5 -26.5q-72 0 -133.5 26t-107.5 72t-72 107t-26 132q0 70 26.5 131.5t72.5 107.5t107.5 72.5t132.5 26.5q70 0 132 -26.5t107.5 -72t72 -107t26.5 -131.5zM634 334q0 53 -20 100t-54.5 82t-81.5 55.5
t-100 20.5t-100 -20t-81.5 -55t-54.5 -82t-20 -100t20 -100t54.5 -82t81.5 -55.5t100 -20.5t100 20t81.5 55t54.5 82t20 100zM477 176q-23 -9 -48 -14t-52 -5q-80 0 -119.5 48t-39.5 125q0 36 9.5 69t30.5 58.5t54 40.5t80 15q24 0 44 -4t37 -10l-11 -74q-14 8 -31.5 12.5
t-36.5 4.5q-47 0 -66.5 -31t-19.5 -78q0 -49 20 -75t62 -26q39 0 74 15z" />
    <glyph glyph-name="trademark" unicode="&#x2122;" horiz-adv-x="694" 
d="M569 394l-20 136l-6 50l-10 -45l-40 -141h-76l-39 144l-10 42l-3 -36l-21 -150h-74l44 281h97l39 -140l10 -44l8 41l41 143h96l45 -281h-81zM187 610v-216h-78v216h-72v65h220v-65h-70z" />
    <glyph glyph-name="acute" unicode="&#xb4;" horiz-adv-x="391" 
d="M136 566l-43 57l153 125l54 -71z" />
    <glyph glyph-name="dieresis" unicode="&#xa8;" horiz-adv-x="546" 
d="M423 652q0 -26 -17.5 -43.5t-42.5 -17.5q-26 0 -43.5 17.5t-17.5 43.5q0 25 17.5 42.5t43.5 17.5q25 0 42.5 -17.5t17.5 -42.5zM227 652q0 -26 -17.5 -43.5t-43.5 -17.5t-43 17.5t-17 43.5q0 25 17 42.5t43 17.5t43.5 -17.5t17.5 -42.5z" />
    <glyph glyph-name="notequal" unicode="&#x2260;" 
d="M269 164l-52 -131h-95l52 131h-124v87h158l37 92h-195v87h229l53 133h96l-53 -133h125v-87h-160l-37 -92h197v-87h-231z" />
    <glyph glyph-name="AE" unicode="&#xc6;" horiz-adv-x="783" 
d="M363 0v157h-212l-79 -157h-113l348 675h404v-91h-242v-192h233v-89h-233v-210h250v-93h-356zM363 583h-2q-14 -31 -28 -62.5t-37 -75.5l-107 -202h174v340z" />
    <glyph glyph-name="Oslash" unicode="&#xd8;" horiz-adv-x="704" 
d="M666 344q0 -84 -25 -150t-69 -111t-104 -69t-129 -24q-40 0 -69 7l-36 -101l-81 26l36 99q-78 40 -114.5 121t-36.5 189q0 84 25.5 149.5t69.5 111t103 69.5t126 24q32 0 62 -6l34 96l81 -26l-34 -92q75 -35 118 -112t43 -201zM554 334q0 75 -21.5 132t-64.5 86
l-166 -460q14 -5 29 -6t29 0q40 2 75 18.5t61.5 47t42 76.5t15.5 106zM392 585q-15 2 -30 3t-33 -1q-36 -4 -68.5 -21.5t-57 -48.5t-39 -75t-14.5 -101q0 -72 18 -126.5t59 -84.5z" />
    <glyph glyph-name="infinity" unicode="&#x221e;" horiz-adv-x="979" 
d="M928 304q0 -37 -13 -69.5t-37.5 -57t-61 -39t-83.5 -14.5q-59 0 -119.5 30t-127.5 81q-28 -21 -58 -41t-61.5 -35.5t-64 -25t-66.5 -9.5q-47 0 -81.5 13.5t-57.5 37t-34.5 54t-11.5 65.5q0 38 13.5 71t38.5 57t60.5 38t78.5 14q63 0 124 -31.5t127 -80.5q27 20 56.5 40
t61 36t64.5 26t66 10q45 0 80 -13t59 -36t36 -54t12 -67zM824 299q0 35 -23 58.5t-65 23.5q-35 0 -76 -23t-87 -58q49 -37 89.5 -60t76.5 -23q42 0 63.5 24.5t21.5 57.5zM406 297q-49 37 -89.5 60.5t-75.5 23.5q-42 0 -63.5 -24.5t-21.5 -57.5q0 -35 22.5 -58.5t64.5 -23.5
q35 0 75.5 22.5t87.5 57.5z" />
    <glyph glyph-name="plusminus" unicode="&#xb1;" 
d="M326 340v-190h-102v190h-183v89h183v189h102v-189h183v-89h-183zM43 0v89h464v-89h-464z" />
    <glyph glyph-name="lessequal" unicode="&#x2264;" 
d="M405 135l-349 252l348 252l65 -73l-266 -178l266 -177zM69 0v89h412v-89h-412z" />
    <glyph glyph-name="greaterequal" unicode="&#x2265;" 
d="M146 135l-65 73l266 179l-266 176l64 76l349 -251zM69 0v89h412v-89h-412z" />
    <glyph glyph-name="yen" unicode="&#xa5;" 
d="M354 307h134v-70h-160v-66h160v-70h-160v-101h-108v101h-160v70h160v66h-160v70h134l-167 343h119l85 -186q14 -29 24.5 -57t18.5 -51h2q10 26 22.5 56t25.5 57l84 181h115z" />
    <glyph glyph-name="mu" unicode="&#xb5;" horiz-adv-x="631" 
d="M613 64q-16 -32 -46 -53t-77 -21q-26 0 -42.5 9t-25.5 23.5t-12 33t-1 36.5h-1q-18 -45 -57 -72.5t-91 -27.5q-51 0 -81 25l16 -261h-112v741h106v-314q0 -48 17 -75.5t63 -27.5q27 0 49.5 13t39 35.5t26 52.5t9.5 64v252h107v-344q0 -48 6.5 -63t22.5 -15q14 0 24.5 10
t16.5 24l43 -45v0z" />
    <glyph glyph-name="partialdiff" unicode="&#x2202;" horiz-adv-x="636" 
d="M568 404q0 -90 -22.5 -175t-74.5 -147q-35 -41 -85 -65.5t-110 -24.5q-51 0 -89.5 15t-65 42.5t-39.5 66t-13 86.5q0 52 17.5 96t49.5 76.5t76.5 51t99.5 18.5q52 0 89 -22t56 -59q-2 24 -2 41.5t-2 34.5q-4 52 -22 91t-46 65.5t-65 39t-80 12.5l13 89q71 -1 129 -24
t99.5 -65.5t64 -104t22.5 -138.5zM428 238q0 50 -30.5 83t-90.5 33q-29 0 -53.5 -11t-42 -30t-27 -45.5t-9.5 -56.5q0 -63 31.5 -94.5t83.5 -31.5q30 0 55 11.5t43.5 32t29 48.5t10.5 61z" />
    <glyph glyph-name="summation" unicode="&#x2211;" horiz-adv-x="608" 
d="M36 -244v83l301 413l-283 395v83h486v-91h-353l274 -383l-298 -406h392v-94h-519z" />
    <glyph glyph-name="product" unicode="&#x220f;" horiz-adv-x="784" 
d="M639 639v-883h-101v883h-291v-883h-102v883h-102v91h697v-91h-101z" />
    <glyph glyph-name="pi" unicode="&#x3c0;" horiz-adv-x="670" 
d="M623 1q-20 -5 -46.5 -8t-53.5 -3q-65 0 -89 34t-24 102v285h-166v-411h-100v411h-104v86h575v-86h-104v-216q0 -41 2 -66t8 -38.5t16.5 -17.5t27.5 -4q14 0 27 2.5t24 5.5l7 -76v0z" />
    <glyph glyph-name="integral" unicode="&#x222b;" horiz-adv-x="341" 
d="M321 638q-10 3 -23 5t-25 2q-18 0 -30.5 -5.5t-20.5 -22t-11.5 -45.5t-3.5 -75q0 -60 2 -114.5t4 -112t4 -121t2 -140.5q0 -71 -10 -121t-29.5 -81.5t-50 -46t-70.5 -14.5q-13 0 -27.5 2t-26.5 4v94q10 -3 22.5 -5t23.5 -2q18 0 30.5 5.5t21 21.5t12.5 45t4 75
q0 57 -2 111.5t-4 112t-4 122t-2 142.5q0 72 10.5 122.5t31.5 81.5t51 45t69 14q12 0 26 -2t26 -5v-92v0z" />
    <glyph glyph-name="ordfeminine" unicode="&#xaa;" horiz-adv-x="395" 
d="M245 335q0 11 1 25t4 26l-2 1q-10 -24 -38.5 -42t-62.5 -18q-54 0 -78 25.5t-24 65.5q0 31 14.5 54.5t40.5 39t62 23.5t80 8v17q0 9 -2 18.5t-8.5 17.5t-18.5 13t-33 5q-29 0 -56.5 -7.5t-50.5 -19.5l-8 75q55 22 129 22q39 0 65 -9.5t41 -25.5t21.5 -36.5t6.5 -42.5
v-149v-51t1 -35h-84zM54 195v84h298v-84h-298zM242 486q-60 0 -87 -14t-27 -41q0 -16 10.5 -25.5t29.5 -9.5t33 8.5t23 21t13.5 26.5t4.5 24v10z" />
    <glyph glyph-name="ordmasculine" unicode="&#xba;" horiz-adv-x="422" 
d="M376 511q0 -42 -13 -75.5t-36.5 -57.5t-55.5 -37t-70 -13q-34 0 -63 9.5t-50 30.5t-33 55t-12 82q0 41 13 74t36 56.5t54.5 36.5t68.5 13q32 0 61 -8.5t51.5 -29t35.5 -54t13 -82.5zM58 195v84h304v-84h-304zM285 510q0 20 -3.5 37.5t-12.5 31t-23.5 21.5t-35.5 8
q-14 0 -28 -5.5t-24.5 -17.5t-17 -31.5t-6.5 -46.5q0 -20 3.5 -38t11.5 -32.5t22.5 -23t35.5 -8.5q33 0 55.5 24t22.5 81z" />
    <glyph glyph-name="Omega" unicode="&#x2126;" horiz-adv-x="749" 
d="M438 0v79q62 41 97.5 106.5t35.5 162.5q0 53 -12.5 99t-37 79.5t-61.5 53t-85 19.5q-46 0 -83.5 -18t-63.5 -50.5t-40.5 -78t-14.5 -100.5q0 -96 32 -160.5t103 -111.5v-80h-246v80h138q-64 43 -98.5 112t-34.5 158q0 73 22.5 134.5t63.5 106t99 69.5t129 25
q66 0 120.5 -21.5t94.5 -62.5t62 -101.5t22 -139.5q0 -93 -38 -165.5t-100 -114.5h141v-80h-245z" />
    <glyph glyph-name="ae" unicode="&#xe6;" horiz-adv-x="804" 
d="M761 292q0 -21 -3 -52h-317q-2 -85 35 -124.5t112 -39.5q37 0 73.5 7.5t69.5 22.5l14 -84q-39 -16 -84 -24t-92 -8q-82 0 -131 30.5t-68 78.5h-1q-11 -22 -28.5 -42t-40.5 -35t-52.5 -23.5t-63.5 -8.5q-66 0 -103.5 38.5t-37.5 99.5q0 84 78 128.5t215 44.5v29
q0 46 -22.5 70t-81.5 24q-35 0 -73.5 -10t-68.5 -26l-21 86q38 14 85.5 23.5t95.5 9.5q53 0 93 -15.5t62 -54.5h1q23 30 62 50t90 20q54 0 92 -17t63 -46.5t36.5 -68.5t11.5 -83zM654 314q2 54 -25 84t-75 30q-45 0 -74 -30.5t-37 -83.5h211zM336 229q-56 0 -92.5 -7
t-58.5 -19t-30.5 -28t-8.5 -34q0 -29 18 -48t50 -19q27 0 49.5 12t38.5 32t25 45t9 52v14z" />
    <glyph glyph-name="oslash" unicode="&#xf8;" horiz-adv-x="549" 
d="M511 258q0 -58 -18 -107t-50.5 -85t-78 -56t-100.5 -20q-31 0 -58 8l-40 -103l-65 20l40 103q-54 31 -79.5 89t-25.5 135q0 57 17.5 106t50 84t78.5 55t102 20q11 0 22 -1t22 -3l36 94l65 -21l-36 -91q25 -12 46.5 -31t37.5 -47t25 -64.5t9 -84.5zM409 251q0 100 -53 141
l-118 -308q21 -8 47 -6q24 1 46.5 12t40 32t27.5 53t10 76zM295 419q-8 1 -17 1.5t-17 -0.5q-23 -2 -44.5 -11.5t-39 -29.5t-28 -51t-10.5 -75q0 -43 10 -78.5t31 -56.5z" />
    <glyph glyph-name="questiondown" unicode="&#xbf;" horiz-adv-x="448" 
d="M324 440q0 -28 -19.5 -47t-48.5 -19t-49 19t-20 47q0 29 20 48t49 19t48.5 -19t19.5 -48zM358 -216q-75 2 -132 19.5t-95.5 44.5t-57.5 61.5t-19 72.5q0 42 14.5 71t36 52.5t44.5 43.5t39.5 43.5t23 54t-6.5 73.5h104q16 -48 12 -83.5t-19.5 -62.5t-37.5 -48t-43 -41
t-35.5 -41.5t-14.5 -49.5q0 -48 53.5 -78.5t147.5 -34.5z" />
    <glyph glyph-name="exclamdown" unicode="&#xa1;" horiz-adv-x="320" 
d="M220 440q0 -28 -19.5 -47t-48.5 -19t-48.5 19t-19.5 47q0 29 19.5 48t48.5 19t48.5 -19t19.5 -48zM88 -208l17 528h91l18 -528h-126z" />
    <glyph glyph-name="logicalnot" unicode="&#xac;" 
d="M391 100v153h-350v89h444v-242h-94z" />
    <glyph glyph-name="radical" unicode="&#x221a;" horiz-adv-x="612" 
d="M358 0h-124l-143 416h-89v81h177l88 -275q8 -26 16 -52.5t15 -53.5h2q10 52 24 99l150 543h117z" />
    <glyph glyph-name="florin" unicode="&#x192;" 
d="M504 599q-23 8 -45.5 12t-41.5 4q-46 0 -68.5 -26.5t-28.5 -86.5l-13 -138h146v-83h-154l-22 -232q-10 -110 -64 -159.5t-150 -49.5q-20 0 -44.5 3t-47.5 9l14 90q21 -6 45 -10.5t44 -4.5q44 0 67 26t28 86l23 242h-114v83h122l13 129q11 110 64.5 159.5t149.5 49.5
q21 0 45 -3.5t45 -8.5z" />
    <glyph glyph-name="approxequal" unicode="&#x2248;" 
d="M507 374q-24 -25 -57.5 -43t-75.5 -18q-34 0 -58 9t-45.5 20.5t-43.5 20.5t-52 9q-29 0 -54 -13t-44 -29l-35 73q26 23 61.5 41t75.5 18q34 0 59.5 -9.5t47.5 -20.5t43 -20.5t47 -9.5t49.5 12.5t46.5 32.5zM508 185q-26 -23 -61.5 -39.5t-73.5 -16.5q-35 0 -60 9
t-46 20.5t-42.5 20.5t-49.5 9q-29 0 -53.5 -13.5t-43.5 -29.5l-36 73q23 21 57 40.5t75 19.5q34 0 59 -9.5t47 -20.5t45 -20.5t53 -9.5q51 0 95 40z" />
    <glyph glyph-name="Delta" unicode="&#x2206;" horiz-adv-x="740" 
d="M30 0l284 700h110l287 -700h-681zM364 568l-185 -471h374z" />
    <glyph glyph-name="guillemotleft" unicode="&#xab;" horiz-adv-x="520" 
d="M372 110l-120 183l122 185l80 -40l-97 -145l98 -142zM159 107l-110 186l112 188l81 -39l-89 -149l91 -146z" />
    <glyph glyph-name="guillemotright" unicode="&#xbb;" horiz-adv-x="520" 
d="M359 107l-82 39l90 149l-90 146l85 40l110 -186zM145 110l-79 40l97 145l-97 142l82 41l120 -183z" />
    <glyph glyph-name="ellipsis" unicode="&#x2026;" horiz-adv-x="691" 
d="M633 58q0 -28 -20 -48t-48 -20q-29 0 -49 20t-20 48q0 29 20 49t49 20q28 0 48 -20t20 -49zM410 58q0 -28 -20 -48t-49 -20q-28 0 -48 20t-20 48q0 29 20 49t48 20q29 0 49 -20t20 -49zM187 58q0 -28 -20 -48t-49 -20q-28 0 -48 20t-20 48q0 29 20 49t48 20q29 0 49 -20
t20 -49z" />
    <glyph glyph-name="nonbreakingspace" unicode="&#xa0;" horiz-adv-x="218" 
 />
    <glyph glyph-name="Agrave" unicode="&#xc0;" horiz-adv-x="620" 
d="M347 721l-202 55l28 79l193 -74zM493 0l-52 149h-273l-52 -149h-110l242 675h121l245 -675h-121zM333 459q-8 25 -15.5 47.5t-12.5 44.5h-2q-10 -42 -27 -91l-80 -224h217z" />
    <glyph glyph-name="Atilde" unicode="&#xc3;" horiz-adv-x="620" 
d="M486 809q-45 -77 -118 -77q-26 0 -43.5 8t-32 17t-27 17t-28.5 8q-34 0 -60 -44l-54 37q21 38 50.5 58t67.5 20q25 0 43 -8t32 -17t27 -17t28 -8q34 0 61 44zM493 0l-52 149h-273l-52 -149h-110l242 675h121l245 -675h-121zM333 459q-8 25 -15.5 47.5t-12.5 44.5h-2
q-10 -42 -27 -91l-80 -224h217z" />
    <glyph glyph-name="Otilde" unicode="&#xd5;" horiz-adv-x="704" 
d="M530 809q-43 -77 -118 -77q-26 0 -43.5 8t-31.5 17t-27 17t-28 8q-35 0 -61 -44l-54 37q21 38 51 58t67 20q26 0 43.5 -8t32 -17t27 -17t28.5 -8q34 0 60 44zM666 346q0 -84 -25.5 -150t-69.5 -112t-103 -70t-126 -24q-77 0 -134 24t-95 68.5t-56.5 107t-18.5 140.5
q0 84 25.5 150t69.5 111.5t103 69.5t126 24q68 0 124 -21t96 -63.5t62 -106t22 -148.5zM550 335q0 123 -51.5 188.5t-146.5 65.5q-39 0 -75 -15.5t-63 -46.5t-43.5 -77t-16.5 -107q0 -57 12 -104.5t36 -81t61 -52t87 -18.5q37 0 73 15t64.5 46t45.5 77.5t17 109.5z" />
    <glyph glyph-name="OE" unicode="&#x152;" horiz-adv-x="862" 
d="M451 0q-26 -5 -53.5 -7.5t-55.5 -2.5q-77 0 -134 24t-95 68.5t-56.5 107t-18.5 140.5q0 84 25.5 150t69.5 111.5t102 69.5t124 24q57 0 103 -10h337v-91h-247v-192h234v-89h-234v-210h247v-93h-348zM443 575q-21 7 -42.5 10.5t-47.5 3.5q-39 0 -75 -15.5t-63.5 -46.5
t-44 -77t-16.5 -107q0 -57 12 -104.5t36 -81t61 -52t87 -18.5q23 0 47 4t46 11v473z" />
    <glyph glyph-name="oe" unicode="&#x153;" horiz-adv-x="867" 
d="M824 292q0 -21 -3 -52h-317q-2 -85 35 -124.5t112 -39.5q36 0 72.5 7.5t70.5 22.5l14 -84q-39 -16 -84 -24t-92 -8q-72 0 -117 24.5t-71 68.5q-27 -41 -72 -67t-108 -26q-52 0 -94 14.5t-72 45.5t-46 78.5t-16 113.5q0 57 17.5 105.5t50 84t78 55.5t102.5 20
q51 0 97.5 -20.5t74.5 -64.5q26 38 67 61.5t98 23.5q53 0 91.5 -17t63 -46.5t36.5 -68.5t12 -83zM717 314q2 54 -25 84t-75 30q-45 0 -74.5 -30.5t-36.5 -83.5h211zM401 251q0 80 -31 123t-95 43q-24 0 -47 -9.5t-41 -29.5t-29 -51t-11 -74q0 -85 32 -128t95 -43q26 0 49 10
t40.5 31t27.5 53t10 75z" />
    <glyph glyph-name="endash" unicode="&#x2013;" 
d="M0 251v93h550v-93h-550z" />
    <glyph glyph-name="emdash" unicode="&#x2014;" horiz-adv-x="1000" 
d="M115 251v93h770v-93h-770z" />
    <glyph glyph-name="quotedblleft" unicode="&#x201c;" horiz-adv-x="457" 
d="M418 712q-25 -26 -38.5 -48t-17.5 -40t0 -33t14 -27q12 -15 13.5 -33t-5.5 -33.5t-22 -26.5t-37 -11q-31 0 -51 24.5t-19.5 65t28 93t90.5 109.5zM215 712q-25 -26 -38.5 -48t-17.5 -40t0 -33t14 -27q12 -15 13.5 -33t-5.5 -33.5t-22 -26.5t-36 -11q-31 0 -51.5 24.5
t-19.5 65t28 93t90 109.5z" />
    <glyph glyph-name="quotedblright" unicode="&#x201d;" horiz-adv-x="457" 
d="M333 745q31 0 51 -24.5t19.5 -65t-28 -93t-90.5 -109.5l-45 40q25 27 38.5 48.5t17.5 39.5t0 33t-14 27q-12 15 -13.5 33t5.5 33.5t22 26.5t37 11zM130 745q31 0 51 -24.5t19.5 -65t-27.5 -93t-90 -109.5l-45 40q24 27 37.5 48.5t17.5 39.5t0.5 33t-13.5 27
q-12 15 -14 33t5 33.5t22 26.5t37 11z" />
    <glyph glyph-name="quoteleft" unicode="&#x2018;" horiz-adv-x="254" 
d="M215 712q-25 -26 -38.5 -48t-17.5 -40t0 -33t14 -27q12 -15 13.5 -33t-5.5 -33.5t-22 -26.5t-36 -11q-31 0 -51.5 24.5t-19.5 65t28 93t90 109.5l45 -40v0z" />
    <glyph glyph-name="quoteright" unicode="&#x2019;" horiz-adv-x="254" 
d="M130 745q31 0 51 -24.5t19.5 -65t-27.5 -93t-90 -109.5l-45 40q24 27 37.5 48.5t17.5 39.5t0.5 33t-13.5 27q-12 15 -14 33t5 33.5t22 26.5t37 11z" />
    <glyph glyph-name="divide" unicode="&#xf7;" 
d="M342 498q0 -29 -19.5 -48.5t-48.5 -19.5t-49 19.5t-20 48.5t20 48.5t49 19.5t48.5 -19.5t19.5 -48.5zM41 253v89h468v-89h-468zM342 96q0 -28 -19.5 -48t-48.5 -20t-49 20t-20 48q0 29 20 49t49 20t48.5 -20t19.5 -49z" />
    <glyph glyph-name="lozenge" unicode="&#x25ca;" horiz-adv-x="622" 
d="M347 -9h-67l-252 349l249 344h65l252 -349zM306 567l-160 -224l170 -235l161 223z" />
    <glyph glyph-name="ydieresis" unicode="&#xff;" horiz-adv-x="490" 
d="M283 -35q-23 -62 -48 -104t-53.5 -67t-63 -35.5t-76.5 -10.5q-14 0 -32 2t-31 4l12 93q13 -4 29.5 -6t31.5 -2q18 0 34.5 5t32.5 17.5t30.5 34.5t26.5 55l18 49l-186 497h120l81 -227q12 -33 21.5 -65.5t17.5 -64.5h1q8 30 21.5 73.5t27.5 81.5l71 202h115zM405 652
q0 -26 -17.5 -43.5t-42.5 -17.5q-26 0 -43.5 17.5t-17.5 43.5q0 25 17.5 42.5t43.5 17.5q25 0 42.5 -17.5t17.5 -42.5zM209 652q0 -26 -17.5 -43.5t-43.5 -17.5t-43 17.5t-17 43.5q0 25 17 42.5t43 17.5t43.5 -17.5t17.5 -42.5z" />
    <glyph glyph-name="Ydieresis" unicode="&#x178;" horiz-adv-x="548" 
d="M433 783q0 -23 -16.5 -39t-39.5 -16t-39 16t-16 39t16 39.5t39 16.5t39.5 -16.5t16.5 -39.5zM218 783q0 -23 -16 -39t-39 -16t-39 16t-16 39t16 39.5t39 16.5t39 -16.5t16 -39.5zM326 241v-241h-109v241l-211 434h119l100 -213q27 -60 48 -114h2q11 30 25.5 62t30.5 64
l95 201h115z" />
    <glyph glyph-name="fraction" unicode="&#x2044;" horiz-adv-x="426" 
d="M20 -30l-77 55l485 675l77 -56z" />
    <glyph glyph-name="Euro" unicode="&#x20ac;" 
d="M517 23q-38 -17 -81 -25t-85 -8q-108 0 -173 53.5t-82 173.5h-85v68h79q-1 7 -1 14.5v15.5q0 14 0.5 26.5t1.5 26.5h-80v68h90q10 49 31 90t54 71t79.5 46.5t106.5 16.5q35 0 72 -7.5t66 -18.5l-26 -85q-24 11 -57 18.5t-66 7.5t-58 -10.5t-43 -29.5t-29.5 -44t-18.5 -55
h178v-68h-190q-1 -11 -1 -21.5v-21.5v-40h191v-68h-181q13 -72 51 -106t109 -34q31 0 62.5 7.5t60.5 20.5l25 -82v0z" />
    <glyph glyph-name="guilsinglleft" unicode="&#x2039;" horiz-adv-x="313" 
d="M164 108l-116 185l117 187l81 -41l-94 -146l95 -143z" />
    <glyph glyph-name="guilsinglright" unicode="&#x203a;" horiz-adv-x="313" 
d="M147 108l-80 41l94 146l-94 143l83 42l115 -185z" />
    <glyph glyph-name="fi" unicode="&#xfb01;" horiz-adv-x="592" 
d="M408 0v414h-199v-414h-106v414h-95v83h95v20q0 108 57.5 164t179.5 56q41 0 76.5 -5t70.5 -14l-19 -89q-29 9 -61.5 14.5t-60.5 5.5q-73 0 -105 -31.5t-32 -91.5v-29h305v-497h-106z" />
    <glyph glyph-name="fl" unicode="&#xfb02;" horiz-adv-x="592" 
d="M408 0v643q-38 7 -79 7q-60 0 -90 -25t-30 -82v-46h124v-83h-124v-414h-106v414h-95v83h95v53q0 42 13.5 76.5t42 59t73.5 38t107 13.5q38 0 84 -4t91 -12v-721h-106z" />
    <glyph glyph-name="daggerdbl" unicode="&#x2021;" horiz-adv-x="452" 
d="M270 292l19 -127h-126l19 127h-137v82h137l-18 91l18 92h-137v82h137l-18 127h124l-18 -127h137v-82h-137l18 -92l-18 -91h137v-82h-137z" />
    <glyph glyph-name="periodcentered" unicode="&#xb7;" horiz-adv-x="250" 
d="M198 297q0 -30 -21.5 -51t-51.5 -21t-51.5 21t-21.5 51q0 31 21.5 52t51.5 21t51.5 -21t21.5 -52z" />
    <glyph glyph-name="quotesinglbase" unicode="&#x201a;" horiz-adv-x="254" 
d="M130 129q31 0 51 -24.5t19.5 -65t-27.5 -93t-90 -109.5l-45 40q24 27 37.5 49t17.5 40t0.5 32.5t-13.5 26.5q-12 15 -14 33t5 34t22 26.5t37 10.5z" />
    <glyph glyph-name="quotedblbase" unicode="&#x201e;" horiz-adv-x="457" 
d="M333 129q31 0 51 -24.5t19.5 -65t-28 -93t-90.5 -109.5l-45 40q25 27 38.5 49t17.5 40t0 32.5t-14 26.5q-12 15 -13.5 33t5.5 34t22 26.5t37 10.5zM130 129q31 0 51 -24.5t19.5 -65t-27.5 -93t-90 -109.5l-45 40q24 27 37.5 49t17.5 40t0.5 32.5t-13.5 26.5
q-12 15 -14 33t5 34t22 26.5t37 10.5z" />
    <glyph glyph-name="perthousand" unicode="&#x2030;" horiz-adv-x="1037" 
d="M905 145q0 45 -14.5 65t-44.5 20q-27 0 -43.5 -23t-16.5 -63q0 -45 14.5 -65t43.5 -20q28 0 44.5 22.5t16.5 63.5zM985 152q0 -38 -11.5 -68t-31.5 -51t-46.5 -32t-55.5 -11q-61 0 -98 36.5t-37 112.5q0 37 11.5 67t31.5 50.5t46 31.5t55 11t54 -8t43 -26t28.5 -46
t10.5 -67zM582 145q0 45 -14 65t-44 20q-28 0 -44.5 -23t-16.5 -63q0 -45 14.5 -65t44.5 -20q27 0 43.5 22.5t16.5 63.5zM662 152q0 -38 -11.5 -68t-31.5 -51t-46 -32t-55 -11q-62 0 -99 36.5t-37 112.5q0 37 11.5 67t31.5 50.5t46 31.5t55 11t54 -8t43 -26t28.5 -46
t10.5 -67zM123 -18l-65 50l524 635l65 -50zM244 507q0 45 -14 64.5t-44 19.5q-28 0 -44.5 -22.5t-16.5 -62.5q0 -45 15 -65.5t44 -20.5q27 0 43.5 23t16.5 64zM324 513q0 -38 -11.5 -68t-31.5 -51t-46 -32t-55 -11q-62 0 -99 37t-37 113q0 37 11.5 67t31.5 50t46 31t55 11
t54 -8t43 -26t28.5 -46t10.5 -67z" />
    <glyph glyph-name="Acircumflex" unicode="&#xc2;" horiz-adv-x="620" 
d="M440 720l-136 61l-133 -61l-26 54l161 86l162 -84zM493 0l-52 149h-273l-52 -149h-110l242 675h121l245 -675h-121zM333 459q-8 25 -15.5 47.5t-12.5 44.5h-2q-10 -42 -27 -91l-80 -224h217z" />
    <glyph glyph-name="Ecircumflex" unicode="&#xca;" horiz-adv-x="498" 
d="M387 720l-136 61l-133 -61l-26 54l160 86l163 -84zM78 0v675h356v-91h-247v-192h235v-89h-235v-210h247v-93h-356z" />
    <glyph glyph-name="Aacute" unicode="&#xc1;" horiz-adv-x="620" 
d="M252 721l-19 60l193 74l27 -79zM493 0l-52 149h-273l-52 -149h-110l242 675h121l245 -675h-121zM333 459q-8 25 -15.5 47.5t-12.5 44.5h-2q-10 -42 -27 -91l-80 -224h217z" />
    <glyph glyph-name="Edieresis" unicode="&#xcb;" horiz-adv-x="498" 
d="M414 783q0 -23 -16.5 -39t-39.5 -16t-39 16t-16 39t16 39.5t39 16.5t39.5 -16.5t16.5 -39.5zM199 783q0 -23 -16 -39t-39 -16t-39 16t-16 39t16 39.5t39 16.5t39 -16.5t16 -39.5zM78 0v675h356v-91h-247v-192h235v-89h-235v-210h247v-93h-356z" />
    <glyph glyph-name="Egrave" unicode="&#xc8;" horiz-adv-x="498" 
d="M306 721l-201 55l27 79l193 -74zM78 0v675h356v-91h-247v-192h235v-89h-235v-210h247v-93h-356z" />
    <glyph glyph-name="Iacute" unicode="&#xcd;" horiz-adv-x="266" 
d="M72 721l-19 60l193 74l27 -79zM78 0v675h109v-675h-109z" />
    <glyph glyph-name="Icircumflex" unicode="&#xce;" horiz-adv-x="266" 
d="M267 720l-136 61l-133 -61l-26 54l161 86l162 -84zM78 0v675h109v-675h-109z" />
    <glyph glyph-name="Idieresis" unicode="&#xcf;" horiz-adv-x="266" 
d="M294 783q0 -23 -16 -39t-39 -16t-39 16t-16 39t16 39.5t39 16.5t39 -16.5t16 -39.5zM80 783q0 -23 -16.5 -39t-39.5 -16t-39 16t-16 39t16 39.5t39 16.5t39.5 -16.5t16.5 -39.5zM78 0v675h109v-675h-109z" />
    <glyph glyph-name="Igrave" unicode="&#xcc;" horiz-adv-x="266" 
d="M189 721l-201 55l27 79l193 -74zM78 0v675h109v-675h-109z" />
    <glyph glyph-name="Oacute" unicode="&#xd3;" horiz-adv-x="704" 
d="M305 721l-19 60l193 74l28 -79zM666 346q0 -84 -25.5 -150t-69.5 -112t-103 -70t-126 -24q-77 0 -134 24t-95 68.5t-56.5 107t-18.5 140.5q0 84 25.5 150t69.5 111.5t103 69.5t126 24q68 0 124 -21t96 -63.5t62 -106t22 -148.5zM550 335q0 123 -51.5 188.5t-146.5 65.5
q-39 0 -75 -15.5t-63 -46.5t-43.5 -77t-16.5 -107q0 -57 12 -104.5t36 -81t61 -52t87 -18.5q37 0 73 15t64.5 46t45.5 77.5t17 109.5z" />
    <glyph glyph-name="Ocircumflex" unicode="&#xd4;" horiz-adv-x="704" 
d="M496 720l-136 61l-133 -61l-26 54l161 86l162 -84zM666 346q0 -84 -25.5 -150t-69.5 -112t-103 -70t-126 -24q-77 0 -134 24t-95 68.5t-56.5 107t-18.5 140.5q0 84 25.5 150t69.5 111.5t103 69.5t126 24q68 0 124 -21t96 -63.5t62 -106t22 -148.5zM550 335
q0 123 -51.5 188.5t-146.5 65.5q-39 0 -75 -15.5t-63 -46.5t-43.5 -77t-16.5 -107q0 -57 12 -104.5t36 -81t61 -52t87 -18.5q37 0 73 15t64.5 46t45.5 77.5t17 109.5z" />
    <glyph glyph-name="apple" horiz-adv-x="1042" 
d="M145 663q12 14 25 27t27 24l88 -105q-9 -7 -18.5 -16.5t-17.5 -18.5zM547 691q-13 2 -25.5 1.5t-25.5 -1.5l-11 133q18 2 37 2t36 -2zM846 713q14 -12 27 -24.5t24 -27.5l-102 -86q-8 9 -18 18.5t-18 16.5zM1023 373q2 -19 2 -36.5t-1 -35.5l-136 11q2 25 0 50zM770 337
q0 -51 -19 -95.5t-48 -74.5v-78l-16 -5l32 -75l-31 -8l31 -72l-32 -8l10 -25l-30 -69h-54q-3 -20 -29 -33t-62 -13q-38 0 -64 13t-28 33h-54l-52 125l31 9l-32 75l35 9l-19 45v78q-29 32 -47.5 75.5t-18.5 93.5q0 51 19.5 96.5t53 79t79 53t97.5 19.5q51 0 96 -19.5t79 -53
t53.5 -79t19.5 -96.5zM452 192l-15 134q-14 -3 -22.5 -7t-15.5 -6t-11 5.5t-5 17.5t1 19t7 11q29 8 63 14t68 6q35 0 68 -6t63 -14q4 -1 6 -10.5t1.5 -19.5t-5 -17.5t-11.5 -4.5q-14 6 -39 12l-14 -134h55q26 24 46 61t20 84q0 39 -15 74t-41 61t-60.5 41t-73.5 15
q-40 0 -74.5 -15t-60.5 -41t-41 -61t-15 -74q0 -42 17.5 -80t49.5 -65h54zM563 333q-12 2 -21.5 2h-19.5h-20.5t-22.5 -2l14 -141h56zM397 145v-51l15 -36l233 59v28h-248zM632 71l-238 -61l15 -36l238 60zM633 -12l-238 -61l24 -59h205l13 30l-6 12l-72 -19l-13 37l102 26z
M510 358h-2v6h-1v-7h3v1zM513 362v-3q0 -2 -0.5 -1.5t-0.5 1.5v3h-1v-3q0 -2 1.5 -2t1.5 2v3h-1zM518 358q-2 -1 -2 1.5t2 1.5v1q-2 1 -2.5 -2.5t2.5 -2.5v1zM522 355q-3 5 0 10q-2 0 -2 -5t2 -5zM525 357h1v3q0 5 -4 1q2 0 3 -1q-2 0 -3 -2t3 0v-1zM525 359q-2 -2 -2 -0.5
t2 0.5zM528 357q5 0 2.5 2t-0.5 2v1q-5 0 -2 -2t0 -2v-1zM531 355q2 0 2 5t-2 5q3 -5 0 -10zM157 362q-2 -26 0 -50l-138 -12q-3 37 0 74z" />
    <glyph glyph-name="Ograve" unicode="&#xd2;" horiz-adv-x="704" 
d="M408 721l-201 55l27 79l193 -74zM666 346q0 -84 -25.5 -150t-69.5 -112t-103 -70t-126 -24q-77 0 -134 24t-95 68.5t-56.5 107t-18.5 140.5q0 84 25.5 150t69.5 111.5t103 69.5t126 24q68 0 124 -21t96 -63.5t62 -106t22 -148.5zM550 335q0 123 -51.5 188.5t-146.5 65.5
q-39 0 -75 -15.5t-63 -46.5t-43.5 -77t-16.5 -107q0 -57 12 -104.5t36 -81t61 -52t87 -18.5q37 0 73 15t64.5 46t45.5 77.5t17 109.5z" />
    <glyph glyph-name="Uacute" unicode="&#xda;" horiz-adv-x="687" 
d="M295 721l-19 60l193 74l27 -79zM609 260q0 -136 -70 -203t-204 -67q-80 0 -130 20t-78 53.5t-38.5 76.5t-10.5 90v445h109v-437q0 -34 6.5 -63t24 -50t47.5 -33t77 -12q41 0 71.5 9t50 29.5t29 53.5t9.5 80v423h107v-415z" />
    <glyph glyph-name="Ucircumflex" unicode="&#xdb;" horiz-adv-x="687" 
d="M478 720l-136 61l-133 -61l-26 54l160 86l163 -84zM609 260q0 -136 -70 -203t-204 -67q-80 0 -130 20t-78 53.5t-38.5 76.5t-10.5 90v445h109v-437q0 -34 6.5 -63t24 -50t47.5 -33t77 -12q41 0 71.5 9t50 29.5t29 53.5t9.5 80v423h107v-415z" />
    <glyph glyph-name="Ugrave" unicode="&#xd9;" horiz-adv-x="687" 
d="M393 721l-202 55l27 79l194 -74zM609 260q0 -136 -70 -203t-204 -67q-80 0 -130 20t-78 53.5t-38.5 76.5t-10.5 90v445h109v-437q0 -34 6.5 -63t24 -50t47.5 -33t77 -12q41 0 71.5 9t50 29.5t29 53.5t9.5 80v423h107v-415z" />
    <glyph glyph-name="dotlessi" unicode="&#x131;" horiz-adv-x="263" 
d="M78 0v497h107v-497h-107z" />
    <glyph glyph-name="circumflex" unicode="&#x2c6;" horiz-adv-x="430" 
d="M314 566l-101 83l-102 -83l-43 49l146 133l145 -132z" />
    <glyph glyph-name="tilde" unicode="&#x2dc;" horiz-adv-x="483" 
d="M415 670q-43 -82 -115 -82q-25 0 -42 8t-30.5 18t-25.5 18t-27 8q-33 0 -58 -46l-52 41q20 40 49 61.5t66 21.5q24 0 41 -8.5t30.5 -18t26 -18t27.5 -8.5q32 0 58 46l52 -41v0z" />
    <glyph glyph-name="macron" unicode="&#xaf;" horiz-adv-x="395" 
d="M68 609v78h259v-78h-259z" />
    <glyph glyph-name="breve" unicode="&#x2d8;" horiz-adv-x="388" 
d="M324 721q0 -28 -7.5 -54t-24 -45.5t-41.5 -31t-59 -11.5q-35 0 -59 12t-40 31.5t-23 45.5t-7 53h72q0 -26 14.5 -44t43.5 -18q27 0 42.5 16t15.5 46h73v0z" />
    <glyph glyph-name="dotaccent" unicode="&#x2d9;" horiz-adv-x="285" 
d="M208 652q0 -28 -20 -47.5t-49 -19.5t-48.5 19t-19.5 48q0 28 19.5 47.5t48.5 19.5t49 -19.5t20 -47.5z" />
    <glyph glyph-name="ring" unicode="&#x2da;" horiz-adv-x="375" 
d="M307 648q0 -24 -9.5 -45t-25.5 -36.5t-38 -24.5t-46 -9q-25 0 -47 8.5t-38 24t-25.5 36.5t-9.5 46t9.5 46t26 36.5t38 24t46.5 8.5t47 -8.5t38 -24t25 -36.5t9 -46zM241 648q0 23 -15 39t-38 16t-38.5 -16t-15.5 -39t15.5 -39t38.5 -16t38 16t15 39z" />
    <glyph glyph-name="cedilla" unicode="&#xb8;" horiz-adv-x="400" 
d="M257 -40q39 -52 30.5 -100t-51.5 -95h-83q38 46 44 83t-30 81l90 31v0z" />
    <glyph glyph-name="hungarumlaut" unicode="&#x2dd;" horiz-adv-x="498" 
d="M302 566l-49 44l135 140l60 -57zM121 566l-51 44l123 147l64 -54z" />
    <glyph glyph-name="ogonek" unicode="&#x2db;" horiz-adv-x="302" 
d="M260 -154q-24 -29 -57 -46t-75 -17q-52 0 -76 24.5t-24 61.5q0 32 20.5 67.5t60.5 63.5h114q-48 -26 -68.5 -53.5t-20.5 -50.5q0 -15 8.5 -22.5t21.5 -7.5q29 0 53 29l43 -49v0z" />
    <glyph glyph-name="caron" unicode="&#x2c7;" horiz-adv-x="430" 
d="M211 566l-145 132l45 50l101 -83l101 83l44 -49z" />
    <glyph glyph-name="Eth" unicode="&#xd0;" horiz-adv-x="682" 
d="M639 346q0 -87 -27.5 -152.5t-77 -109.5t-118 -66t-151.5 -22q-51 0 -94 1.5t-83 2.5v304h-86v82h86v288q40 1 94.5 2.5t113.5 1.5q80 0 143.5 -19t108 -59.5t68 -103t23.5 -150.5zM524 338q0 120 -56 185t-180 65q-26 0 -50 -0.5t-42 -2.5v-199h131v-82h-131v-211
q3 0 12 -1t21 -1.5t25 -1t23 -0.5q54 0 99.5 14.5t78.5 45.5t51 77.5t18 111.5z" />
    <glyph glyph-name="Grave" horiz-adv-x="371" 
d="M273 721l-201 55l27 79l193 -74z" />
    <glyph glyph-name="Acute" horiz-adv-x="391" 
d="M102 721l-19 60l193 74l27 -79z" />
    <glyph glyph-name="Dieresis" horiz-adv-x="546" 
d="M425 783q0 -23 -16 -39t-39 -16t-39 16t-16 39t16 39.5t39 16.5t39 -16.5t16 -39.5zM210 783q0 -23 -16 -39t-39 -16t-39 16t-16 39t16 39.5t39 16.5t39 -16.5t16 -39.5z" />
    <glyph glyph-name="Circumflex" horiz-adv-x="430" 
d="M347 720l-137 61l-133 -61l-26 54l161 86l163 -84z" />
    <glyph glyph-name="Tilde" horiz-adv-x="483" 
d="M431 809q-45 -77 -118 -77q-26 0 -43.5 8t-32 17t-27 17t-28.5 8q-34 0 -60 -44l-54 37q21 38 50.5 58t67.5 20q25 0 43 -8t32 -17t27 -17t28 -8q34 0 61 44l54 -38v0z" />
    <glyph glyph-name="Caron" horiz-adv-x="430" 
d="M212 720l-162 84l28 56l136 -61l133 61l26 -54z" />
    <glyph glyph-name="uni20AC" 
d="M517 23q-38 -17 -81 -25t-85 -8q-108 0 -173 53.5t-82 173.5h-85v68h79q-1 7 -1 14.5v15.5q0 14 0.5 26.5t1.5 26.5h-80v68h90q10 49 31 90t54 71t79.5 46.5t106.5 16.5q35 0 72 -7.5t66 -18.5l-26 -85q-24 11 -57 18.5t-66 7.5t-58 -10.5t-43 -29.5t-29.5 -44t-18.5 -55
h178v-68h-190q-1 -11 -1 -21.5v-21.5v-40h191v-68h-181q13 -72 51 -106t109 -34q31 0 62.5 7.5t60.5 20.5l25 -82v0z" />
    <glyph glyph-name="eth" unicode="&#xf0;" 
d="M510 275q0 -72 -19 -126t-52 -89t-77 -52.5t-95 -17.5t-93.5 15t-72.5 46.5t-47 78.5t-17 112q0 57 17 105.5t48.5 83.5t75 54.5t96.5 19.5q28 0 54 -9t40 -30q-8 14 -15.5 26.5t-12.5 20.5q-11 19 -25 38.5t-34 39.5l-98 -43l-44 52l90 40q-17 15 -36.5 30t-42.5 32
l106 45q19 -15 37 -31t35 -33l95 41l44 -53l-92 -40q65 -78 100 -168t35 -188zM399 261q0 72 -31 114t-94 42q-25 0 -47.5 -10t-40 -30.5t-28 -51.5t-10.5 -74q0 -82 34.5 -125.5t95.5 -43.5q25 0 47.5 10t38.5 32t25.5 55.5t9.5 81.5z" />
    <glyph glyph-name="Lslash" unicode="&#x141;" horiz-adv-x="440" 
d="M92 0v273l-82 -28l-17 81l99 33v316h109v-284l110 36l16 -82l-126 -41v-209h231v-95h-340z" />
    </font>
</defs>
</svg>
